<?xml version="1.0" standalone="no"?>
<!DOCTYPE svg PUBLIC "-//W3C//DTD SVG 1.1//EN" "http://www.w3.org/Graphics/SVG/1.1/DTD/svg11.dtd" >
<svg xmlns="http://www.w3.org/2000/svg">
<metadata></metadata>
<defs>
<font id="gibsonbold_italic" horiz-adv-x="1320" >
<font-face units-per-em="2048" ascent="1638" descent="-410" />
<missing-glyph horiz-adv-x="387" />
<glyph unicode="&#xfb01;" horiz-adv-x="1380" d="M4 -358q33 61 47 147l146 916h-119l55 339h117q32 208 145.5 304t323.5 96q159 0 272 -31l-69 -311q-66 16 -127 16q-47 0 -70 -15.5t-29 -58.5h197l-53 -339h-197l-143 -904q-7 -45 -20 -85t-22 -57l-9 -17h-445zM821 72q0 41 8 88l117 737q6 43 6 76q0 19 -1.5 37 t-2.5 26l-2 8h445q6 -26 6 -73q0 -51 -6 -86l-117 -738q-6 -43 -6 -75q0 -20 1.5 -38t2.5 -26l2 -8h-445q-8 25 -8 72zM991 1257q0 116 79.5 189.5t197.5 73.5q90 0 148.5 -46.5t58.5 -134.5q0 -116 -80 -189t-197 -73q-91 0 -149 46.5t-58 133.5z" />
<glyph unicode="&#xfb02;" horiz-adv-x="1394" d="M4 -358q33 61 47 147l146 916h-119l55 339h117q32 208 145.5 304t323.5 96q159 0 272 -31l-69 -311q-66 16 -127 16q-47 0 -70 -15.5t-29 -58.5h197l-53 -339h-197l-143 -904q-7 -45 -20 -85t-22 -57l-9 -17h-445zM829 72q0 36 9 88l174 1106q6 46 6 84l-4 63h444 q6 -22 6 -67q0 -44 -8 -93l-174 -1106q-6 -43 -6 -75q0 -20 1.5 -38t2.5 -26l2 -8h-444q-9 25 -9 72z" />
<glyph unicode="&#xfb03;" horiz-adv-x="2125" d="M4 -358q33 61 47 147l146 916h-119l55 339h117q32 208 145.5 304t323.5 96q159 0 272 -31l-69 -311q-66 16 -127 16q-47 0 -70 -15.5t-29 -58.5h299q32 208 145.5 304t323.5 96q160 0 273 -31l-70 -311q-66 16 -127 16q-47 0 -69.5 -15t-28.5 -59h196l-53 -339h-196 l-144 -904q-7 -45 -20 -85t-22 -57l-9 -17h-444q33 61 47 147l145 916h-299l-143 -904q-7 -45 -20 -85t-22 -57l-9 -17h-445zM1567 72q0 41 8 88l117 737q6 43 6 76q0 19 -1.5 37t-2.5 26l-2 8h444q6 -26 6 -73q0 -51 -6 -86l-117 -738q-6 -43 -6 -75q0 -20 1.5 -38t3.5 -26 l1 -8h-444q-8 25 -8 72zM1737 1257q0 117 79 190t197 73q90 0 148.5 -46.5t58.5 -134.5q0 -116 -79.5 -189t-196.5 -73q-91 0 -149 46.5t-58 133.5z" />
<glyph unicode="&#xfb04;" horiz-adv-x="2140" d="M4 -358q33 61 47 147l146 916h-119l55 339h117q32 208 145.5 304t323.5 96q159 0 272 -31l-69 -311q-66 16 -127 16q-47 0 -70 -15.5t-29 -58.5h299q32 208 145.5 304t323.5 96q160 0 273 -31l-70 -311q-66 16 -127 16q-47 0 -69.5 -15t-28.5 -59h196l-53 -339h-196 l-144 -904q-7 -45 -20 -85t-22 -57l-9 -17h-444q33 61 47 147l145 916h-299l-143 -904q-7 -45 -20 -85t-22 -57l-9 -17h-445zM1575 72q0 41 8 88l174 1106q6 46 6 84l-4 63h445q6 -22 6 -67q0 -44 -8 -93l-174 -1106q-7 -51 -7 -75q0 -20 1.5 -38t3.5 -26l2 -8h-445 q-8 25 -8 72z" />
<glyph horiz-adv-x="2048" />
<glyph horiz-adv-x="2048" />
<glyph unicode="&#xd;" horiz-adv-x="2048" />
<glyph unicode=" "  horiz-adv-x="387" />
<glyph unicode="&#x09;" horiz-adv-x="387" />
<glyph unicode="&#xa0;" horiz-adv-x="387" />
<glyph unicode="!" horiz-adv-x="694" d="M88 158q0 121 80 193.5t203 72.5q93 0 152 -44.5t59 -133.5q0 -122 -80 -195.5t-203 -73.5q-93 0 -152 45.5t-59 135.5zM186 489l107 924h467l-187 -924h-387z" />
<glyph unicode="&#x22;" horiz-adv-x="1161" d="M246 829l43 584h407l-141 -584h-309zM776 829l43 584h408l-142 -584h-309z" />
<glyph unicode="#" horiz-adv-x="1409" d="M109 403l36 224h236l90 262h-211l35 223h252l145 420h240l-146 -420h222l145 420h240l-144 -420h195l-35 -223h-235l-91 -262h211l-34 -224h-252l-146 -419h-239l145 419h-223l-144 -419h-241l145 419h-196zM621 627h223l90 262h-223z" />
<glyph unicode="$" d="M127 174l227 301q33 -41 113 -82t135 -47l37 176q-63 26 -104 45.5t-91 53t-79 68t-49.5 86t-20.5 112.5q0 114 40.5 207t111.5 156t165 101t205 48l19 80h176l-19 -86q86 -8 176.5 -47t145.5 -97l-197 -291q-44 41 -100.5 72t-110.5 41l-37 -174q50 -24 73.5 -35.5 t66.5 -36t64.5 -42t51 -46.5t43.5 -57.5t24.5 -67t10.5 -82.5q0 -140 -71.5 -254.5t-187.5 -181t-255 -80.5l-16 -75h-176l16 71q-110 9 -213 51t-174 113zM690 997q0 -33 41 -53l31 133q-31 -1 -51.5 -24.5t-20.5 -55.5zM748 342q30 6 50.5 28t20.5 52q0 32 -41 57z" />
<glyph unicode="%" horiz-adv-x="1886" d="M174 958q0 202 125.5 339t329.5 137q148 0 238.5 -84.5t90.5 -231.5q0 -131 -55 -239t-159.5 -172t-239.5 -64q-150 0 -240 84t-90 231zM389 57l1073 1397l158 -108l-1073 -1397zM457 1001q0 -98 88 -98q67 0 102 54t35 124q0 48 -23 75.5t-69 27.5q-67 0 -100 -55.5 t-33 -127.5zM1051 285q0 202 125 338.5t329 136.5q149 0 239.5 -84.5t90.5 -231.5q0 -131 -55.5 -239t-160 -172t-239.5 -64q-150 0 -239.5 84t-89.5 232zM1333 328q0 -99 88 -99q65 0 100 54.5t35 124.5q0 102 -92 102q-66 0 -98.5 -55t-32.5 -127z" />
<glyph unicode="&#x26;" horiz-adv-x="1617" d="M76 336q0 165 100 279t262 169q-86 111 -86 228q0 90 32 163.5t85 122.5t125 82.5t150 48.5t161 15q77 0 147 -15.5t132.5 -48.5t99.5 -94t37 -143q0 -135 -86 -249.5t-215 -176.5l96 -119q123 102 215 219l268 -186q-152 -188 -290 -287l258 -321l-4 -23h-504l-82 102 q-106 -68 -206.5 -97.5t-225.5 -29.5q-93 0 -173.5 20t-148.5 61t-107.5 113t-39.5 167zM508 403q0 -41 33 -66.5t77 -25.5q102 0 166 43l-157 197q-119 -57 -119 -148zM762 1051q0 -16 7.5 -32.5t16 -27t23.5 -28t22 -25.5q25 16 40 27t35.5 29.5t31 40t10.5 44.5 q0 33 -23 48.5t-57 15.5q-45 0 -75.5 -24t-30.5 -68z" />
<glyph unicode="'" horiz-adv-x="784" d="M324 829l43 584h407l-141 -584h-309z" />
<glyph unicode="(" horiz-adv-x="763" d="M121 338q0 189 35.5 364.5t106.5 336t162.5 304t215.5 295.5l256 -143q-180 -225 -292.5 -533.5t-112.5 -588.5q0 -162 32 -337t94 -302l-303 -144q-99 197 -146.5 371t-47.5 377z" />
<glyph unicode=")" horiz-adv-x="763" d="M-27 -266q179 226 291.5 534.5t112.5 587.5q0 161 -32 336t-93 303l301 143q100 -199 148.5 -372t48.5 -375q0 -367 -132.5 -678t-388.5 -623z" />
<glyph unicode="*" horiz-adv-x="1042" d="M229 1104l105 219l241 -113l21 275h229l-67 -275l276 113l37 -219l-297 -72l156 -254l-201 -129l-108 269l-195 -269l-160 129l236 254z" />
<glyph unicode="+" horiz-adv-x="1505" d="M123 543v327h424v420h327v-420h426v-327h-426v-420h-327v420h-424z" />
<glyph unicode="," horiz-adv-x="694" d="M-80 -287l303 666h418l-352 -666h-369z" />
<glyph unicode="-" horiz-adv-x="763" d="M84 362l55 349h623l-55 -349h-623z" />
<glyph unicode="." horiz-adv-x="694" d="M88 156q0 122 80 194t203 72q92 0 151.5 -44.5t59.5 -133.5q0 -122 -80 -194.5t-203 -72.5q-92 0 -151.5 45t-59.5 134z" />
<glyph unicode="/" horiz-adv-x="1122" d="M-25 -94l1080 1741l227 -119l-1081 -1741z" />
<glyph unicode="0" d="M104 530q0 113 20.5 222t60 210.5t102 187t142 149t185 99.5t226.5 36q126 0 223.5 -40.5t159 -115t92.5 -175t31 -224.5q0 -136 -28.5 -265.5t-88.5 -245.5t-145.5 -203.5t-208 -138.5t-267.5 -51q-126 0 -223.5 40.5t-158 115t-91.5 175t-31 224.5zM543 571 q0 -200 129 -200q53 0 96 37t68 91.5t42 123t23 124.5t6 103q0 197 -129 197q-53 0 -96 -37t-68 -91t-42 -121.5t-23 -123.5t-6 -103z" />
<glyph unicode="1" horiz-adv-x="993" d="M264 1102l49 311h658l-223 -1413h-433l177 1102h-228z" />
<glyph unicode="2" d="M111 289l505 389q105 81 142 119q90 92 90 178q0 53 -40 75.5t-99 22.5q-89 0 -182.5 -44t-166.5 -111l-118 319q110 94 257.5 145.5t315.5 51.5q71 0 136.5 -10.5t128 -36.5t108 -65t73 -100.5t27.5 -138.5q0 -64 -16.5 -126t-41.5 -111.5t-67.5 -101.5t-80.5 -89.5 t-96 -84t-98.5 -75.5t-103.5 -73.5t-96 -69.5h557l-55 -352h-1075z" />
<glyph unicode="3" d="M78 207l233 278q44 -71 132 -112t178 -41q73 0 132.5 41t59.5 110q0 31 -15.5 52t-36.5 31t-55 14.5t-58 4.5t-60 -1.5t-47 -1.5l49 311q13 0 44.5 -1.5t52 -1t50 2.5t49 9.5t38.5 20t28.5 35t9.5 52.5q0 82 -121 82q-171 0 -342 -113l-102 301q126 82 251.5 118 t280.5 36q81 0 160 -19t149.5 -57.5t114 -106t43.5 -153.5q0 -60 -12.5 -109.5t-30.5 -83.5t-49.5 -64.5t-59 -49.5t-69.5 -43q81 -28 124.5 -98t43.5 -158q0 -102 -38 -188t-101.5 -145t-147.5 -101t-175.5 -61.5t-186.5 -19.5q-71 0 -143.5 12t-145.5 37.5t-133.5 72 t-93.5 108.5z" />
<glyph unicode="4" d="M37 256l55 358l699 799h499l-127 -807h162l-55 -350h-162l-41 -256h-432l41 256h-639zM489 596h250l60 369z" />
<glyph unicode="5" d="M78 207l233 278q43 -68 128.5 -110.5t170.5 -42.5q90 0 157 51t67 137q0 67 -50.5 100t-121.5 33q-135 0 -267 -71l-162 112l213 719h900l-58 -352h-569l-39 -127q71 24 168 24q180 0 301 -101t121 -277q0 -111 -36 -208t-99 -168.5t-148 -123t-185.5 -77.5t-207.5 -26 q-158 0 -304.5 55.5t-211.5 174.5z" />
<glyph unicode="6" d="M141 528q0 142 32 275t97.5 247.5t157.5 200t220 134.5t276 49q117 0 236 -34.5t196 -103.5l-197 -299q-55 39 -130 63.5t-140 24.5q-116 0 -186.5 -72.5t-90.5 -191.5q125 111 330 111q154 0 251 -97t97 -251q0 -178 -87 -318t-232.5 -214.5t-321.5 -74.5 q-243 0 -375.5 152.5t-132.5 398.5zM555 449q0 -57 35.5 -93.5t91.5 -36.5q73 0 125.5 55t52.5 128q0 56 -36 92.5t-91 36.5q-72 0 -125 -55t-53 -127z" />
<glyph unicode="7" d="M182 0l709 1063h-647l55 350h1006l86 -268l-742 -1145h-467z" />
<glyph unicode="8" d="M100 340q0 141 76.5 245.5t210.5 145.5q-74 29 -115 90.5t-41 141.5q0 118 53.5 211t142 148t194 83.5t219.5 28.5q69 0 134 -10.5t129 -35.5t111 -63.5t76 -98.5t29 -136q0 -125 -66.5 -222.5t-183.5 -136.5q89 -29 137.5 -95.5t48.5 -160.5q0 -100 -37.5 -184 t-100.5 -141t-147 -97t-175 -58t-187 -18q-72 0 -141 11t-136.5 37.5t-118 67t-81.5 104t-31 143.5zM543 432q0 -52 34 -79t87 -27q69 0 116 43.5t47 111.5q0 52 -34 79.5t-86 27.5q-69 0 -116.5 -44t-47.5 -112zM651 969q0 -42 28.5 -64t72.5 -22q62 0 99.5 36t37.5 97 q0 43 -28.5 64.5t-74.5 21.5q-61 0 -98 -36t-37 -97z" />
<glyph unicode="9" d="M92 115l197 299q56 -39 131.5 -63.5t140.5 -24.5q115 0 185.5 72.5t91.5 191.5q-125 -111 -330 -111q-155 0 -252.5 97t-97.5 251q0 134 51 248.5t138 192.5t204.5 122t249.5 44q162 0 277.5 -72t172 -195t56.5 -284q0 -142 -32 -275t-97 -247.5t-157 -200t-219.5 -134.5 t-275.5 -49q-117 0 -237.5 34.5t-196.5 103.5zM590 909q0 -56 35.5 -92.5t91.5 -36.5q71 0 124.5 56t53.5 127q0 57 -36 93t-93 36q-71 0 -123.5 -55t-52.5 -128z" />
<glyph unicode=":" horiz-adv-x="694" d="M88 158q0 121 80 193.5t203 72.5q93 0 152 -44.5t59 -133.5q0 -122 -80 -195.5t-203 -73.5q-93 0 -152 45.5t-59 135.5zM190 799q0 122 80 195t203 73q93 0 152 -45t59 -135q0 -121 -80 -193.5t-203 -72.5q-93 0 -152 44.5t-59 133.5z" />
<glyph unicode=";" horiz-adv-x="694" d="M-80 -287l305 668h416l-352 -668h-369zM190 799q0 122 80 195t203 73q93 0 152 -45t59 -135q0 -121 -80 -193.5t-203 -72.5q-93 0 -152 44.5t-59 133.5z" />
<glyph unicode="&#x3c;" horiz-adv-x="1505" d="M123 522v369l1177 389v-358l-727 -215l727 -215v-359z" />
<glyph unicode="=" horiz-adv-x="1505" d="M123 276v328h1177v-328h-1177zM123 809v328h1177v-328h-1177z" />
<glyph unicode="&#x3e;" horiz-adv-x="1505" d="M123 133v359l727 215l-727 215v358l1177 -389v-369z" />
<glyph unicode="?" horiz-adv-x="1142" d="M236 158q0 121 79.5 193.5t202.5 72.5q93 0 152 -44.5t59 -133.5q0 -122 -80 -195.5t-203 -73.5q-92 0 -151 45.5t-59 135.5zM262 1311q115 65 230 94t264 29q78 0 151 -21t133.5 -61t97 -106t36.5 -148q0 -44 -6.5 -83.5t-15.5 -70.5t-27 -61t-33.5 -51.5t-43.5 -45 t-47.5 -38.5t-54.5 -36t-57 -33t-62.5 -33.5t-62.5 -33.5q-12 -7 -20.5 -17t-13 -25.5t-6.5 -24t-4 -30t-3 -26.5h-377q3 20 8.5 61t8.5 59t10 49.5t17 49t25.5 40t38.5 40t54 33.5q5 2 59 27.5t92 45.5t74.5 52t36.5 58q0 63 -143 63q-147 0 -314 -98z" />
<glyph unicode="@" horiz-adv-x="1589" d="M78 264q0 177 68 338.5t183.5 280t277 188.5t339.5 70q99 0 188 -19.5t166.5 -61t134 -101.5t89 -146t32.5 -190q0 -111 -35.5 -221t-99 -200t-160.5 -146t-210 -56q-67 0 -115 27t-55 88q-43 -50 -111 -82.5t-133 -32.5q-115 0 -177.5 69.5t-62.5 186.5q0 97 33 191.5 t91 170.5t147 123t192 47q131 0 187 -67l14 39h211q-5 -15 -39.5 -107t-62.5 -170t-53 -157t-25 -101q0 -43 47 -43q55 0 101.5 49t74 119t42.5 138t15 116q0 97 -34.5 170.5t-95.5 117.5t-139.5 65.5t-172.5 21.5q-141 0 -265 -56.5t-210 -151.5t-135.5 -223t-49.5 -267 q0 -215 130 -333t348 -118q123 0 220 21.5t218 70.5l39 -137q-137 -65 -261 -92t-282 -27q-268 0 -436 164.5t-168 433.5zM623 313q0 -57 28.5 -88.5t85.5 -31.5q43 0 78 19.5t57 47.5t42 72t30 78.5t23.5 81.5t21.5 69q-42 51 -117 51q-74 0 -132.5 -46t-87.5 -113.5 t-29 -139.5z" />
<glyph unicode="A" horiz-adv-x="1409" d="M-63 0l696 1413h495l250 -1413h-487l-21 199h-383l-84 -199h-466zM637 555h197l-41 369z" />
<glyph unicode="B" horiz-adv-x="1310" d="M55 0l224 1413h563q51 0 93.5 -2t95.5 -9.5t94 -20.5t82.5 -36t68.5 -54t44 -77.5t17 -103.5q0 -136 -65 -229t-176 -138q97 -31 153 -102.5t56 -171.5q0 -98 -32 -177.5t-86 -133t-127.5 -90t-154.5 -52.5t-170 -16h-680zM557 346h152q66 0 107.5 35t41.5 100 q0 86 -121 86h-145zM641 877h100q62 0 101 30.5t39 91.5q0 78 -107 78h-102z" />
<glyph unicode="C" horiz-adv-x="1261" d="M96 559q0 187 63 349t174.5 278t271.5 182t347 66q114 0 242 -33.5t192 -100.5l-182 -393q-53 55 -132 90t-152 35q-162 0 -263.5 -111t-101.5 -274q0 -117 73 -183.5t191 -66.5q95 0 184.5 33.5t159.5 95.5l72 -372q-202 -179 -512 -179q-182 0 -323 67t-222.5 200.5 t-81.5 316.5z" />
<glyph unicode="D" horiz-adv-x="1429" d="M55 0l224 1413h514q114 0 210 -16.5t182.5 -56.5t146.5 -101t95 -155.5t35 -215.5q0 -419 -234.5 -643.5t-647.5 -224.5h-525zM563 391h103q89 0 156 32.5t106 90t58.5 129.5t19.5 158q0 231 -240 231h-100z" />
<glyph unicode="E" horiz-adv-x="1150" d="M55 0l224 1413h968l-59 -366h-520l-25 -150h492l-58 -367h-491l-25 -159h541l-60 -371h-987z" />
<glyph unicode="F" horiz-adv-x="1091" d="M55 0l224 1413h948l-58 -366h-501l-35 -216h473l-59 -366h-472l-73 -465h-447z" />
<glyph unicode="G" horiz-adv-x="1470" d="M96 559q0 251 106.5 450t302 312t447.5 113q176 0 304.5 -57.5t230.5 -190.5l-338 -258q-101 125 -256 125q-81 0 -147.5 -39t-107.5 -102t-63 -137.5t-22 -151.5q0 -115 58.5 -189t170.5 -74q51 0 110.5 12.5t82.5 39.5l16 98h-207l56 346h643l-99 -631 q-165 -135 -314 -191.5t-357 -56.5q-180 0 -318.5 67t-218.5 200t-80 315z" />
<glyph unicode="H" horiz-adv-x="1470" d="M55 0l224 1413h448l-80 -510h365l82 510h448l-225 -1413h-449l84 520h-366l-82 -520h-449z" />
<glyph unicode="I" horiz-adv-x="647" d="M55 0l224 1413h448l-223 -1413h-449z" />
<glyph unicode="J" horiz-adv-x="645" d="M-195 -342l72 336q61 -21 107 -21q39 0 55.5 19.5t23.5 60.5l216 1360h446l-215 -1360q-34 -212 -137.5 -322t-306.5 -110q-64 0 -146 9.5t-115 27.5z" />
<glyph unicode="K" horiz-adv-x="1349" d="M55 0l224 1413h446l-68 -424l351 424h526l-530 -579l335 -834h-536l-152 467l-92 -98l-57 -369h-447z" />
<glyph unicode="L" horiz-adv-x="1032" d="M55 0l224 1413h446l-164 -1032h463l-59 -381h-910z" />
<glyph unicode="M" horiz-adv-x="1777" d="M16 0l303 1413h574l49 -760l291 760h573l-145 -1413h-440l110 793l-299 -793h-387l-47 793l-141 -793h-441z" />
<glyph unicode="N" horiz-adv-x="1509" d="M55 0l224 1413h485l266 -778q11 118 28 236t48 306t39 236h436l-223 -1413h-467l-285 778q-9 -91 -24.5 -201t-26.5 -181.5t-33 -207t-30 -188.5h-437z" />
<glyph unicode="O" horiz-adv-x="1568" d="M96 561q0 252 110 451.5t308 311.5t449 112q185 0 327 -66t224.5 -200t82.5 -320q0 -252 -109.5 -451.5t-307 -311.5t-449.5 -112q-138 0 -253.5 38.5t-200.5 111t-133 184.5t-48 252zM555 643q0 -115 64.5 -185.5t177.5 -70.5q103 0 184 58.5t121.5 148.5t40.5 192 q0 115 -64.5 185.5t-177.5 70.5q-103 0 -184 -58.5t-121.5 -148.5t-40.5 -192z" />
<glyph unicode="P" horiz-adv-x="1241" d="M55 0l224 1413h591q79 0 146 -12t127 -40t102 -71.5t66 -109t24 -148.5q0 -286 -164 -440t-444 -154h-154l-69 -438h-449zM627 791h80q80 0 126 42.5t46 122.5q0 61 -37 84t-101 23h-71z" />
<glyph unicode="Q" horiz-adv-x="1568" d="M96 561q0 252 110 451.5t308 311.5t449 112q185 0 327 -66t224.5 -200t82.5 -320q0 -176 -55 -328t-156 -268l119 -170l-303 -238l-133 189q-157 -60 -338 -60q-138 0 -253.5 38.5t-200.5 111t-133 184.5t-48 252zM555 643q0 -115 64 -185.5t178 -70.5q4 0 12 1t12 1 l-30 41l303 238l24 -33q25 73 25 151q0 115 -64.5 185.5t-177.5 70.5q-103 0 -184 -58.5t-121.5 -148.5t-40.5 -192z" />
<glyph unicode="R" horiz-adv-x="1310" d="M55 0l224 1413h591q79 0 148 -10.5t135 -37t112.5 -68t74.5 -107.5t28 -152q0 -159 -80 -291.5t-219 -209.5l221 -537h-516l-141 469h-55l-74 -469h-449zM631 821h117q69 0 115 39t46 107q0 50 -38 73t-91 23h-110z" />
<glyph unicode="S" horiz-adv-x="1132" d="M-18 166l256 350q57 -60 158 -107t182 -47q20 0 41.5 3.5t42 17.5t20.5 35q0 24 -29 43.5t-75.5 35t-102.5 33.5t-112 45.5t-102.5 65t-75.5 98t-29 138.5q0 107 34 198t93 155.5t140 110t175 67.5t197 22q114 0 246.5 -48t209.5 -122l-221 -332q-63 55 -150.5 95 t-162.5 40q-14 0 -30 -2t-34 -7.5t-29.5 -17.5t-11.5 -28q0 -21 29.5 -39t76 -34.5t103 -35.5t113.5 -49t103.5 -68.5t76 -99.5t29.5 -137q0 -135 -56 -245.5t-150 -180t-212.5 -107t-247.5 -37.5q-276 0 -495 191z" />
<glyph unicode="T" horiz-adv-x="1093" d="M123 1051l57 362h1088l-58 -362h-319l-166 -1051h-449l166 1051h-319z" />
<glyph unicode="U" horiz-adv-x="1429" d="M127 432q0 72 14 172l129 809h451l-131 -829q-6 -34 -6 -66q0 -65 39.5 -101t103.5 -36q171 0 203 203l131 829h450l-127 -809q-50 -311 -226.5 -469t-493.5 -158q-116 0 -212 27t-169.5 80.5t-114.5 142.5t-41 205z" />
<glyph unicode="V" horiz-adv-x="1429" d="M160 1413h477l125 -813l383 813h475l-735 -1413h-436z" />
<glyph unicode="W" horiz-adv-x="2015" d="M160 1413h467l43 -778l288 778h445l43 -778l289 778h467l-609 -1413h-456l-56 791l-305 -791h-454z" />
<glyph unicode="X" horiz-adv-x="1429" d="M-84 0l569 737l-321 676h536l131 -375l250 375h535l-535 -676l336 -737h-534l-146 446l-284 -446h-537z" />
<glyph unicode="Y" d="M139 1413h498l125 -471l274 471h498l-610 -860l-86 -553h-449l88 553z" />
<glyph unicode="Z" horiz-adv-x="1310" d="M16 0l52 330l700 712h-567l59 371h1143l-49 -319l-701 -713h617l-60 -381h-1194z" />
<glyph unicode="[" horiz-adv-x="763" d="M23 -334l299 1897h544l-30 -205h-203l-236 -1487h203l-33 -205h-544z" />
<glyph unicode="\" horiz-adv-x="1122" d="M250 1518l244 110l510 -1732l-244 -111z" />
<glyph unicode="]" horiz-adv-x="763" d="M2 -334l33 205h201l235 1487h-201l33 205h545l-301 -1897h-545z" />
<glyph unicode="^" horiz-adv-x="1505" d="M137 614l389 871h369l389 -871h-358l-215 512l-215 -512h-359z" />
<glyph unicode="_" horiz-adv-x="1024" d="M0 -160v320h1024v-320h-1024z" />
<glyph unicode="`" horiz-adv-x="993" d="M426 1413h358l93 -297h-310z" />
<glyph unicode="a" horiz-adv-x="1314" d="M59 403q0 100 23.5 195.5t70.5 180t113 148.5t157 101t195 37q81 0 157.5 -26t115.5 -81q4 56 8 86h444l-141 -897q-6 -43 -6 -75q0 -20 1.5 -38t2.5 -26l2 -8h-416q-8 25 -8 72q0 19 4 39q-63 -67 -151.5 -101.5t-184.5 -34.5q-184 0 -285.5 120t-101.5 308zM518 489 q0 -61 35.5 -100t95.5 -39q83 0 135 65.5t52 151.5q0 61 -35.5 99.5t-95.5 38.5q-82 0 -134.5 -66t-52.5 -150z" />
<glyph unicode="b" horiz-adv-x="1314" d="M16 0q33 61 47 147l177 1106q7 45 20 85t22 58l9 17h442q-33 -61 -47 -147l-51 -308q54 53 136.5 80t166.5 27q186 0 286.5 -119.5t100.5 -308.5q0 -99 -23 -194t-70.5 -180t-113 -149t-156.5 -101.5t-196 -37.5q-90 0 -169 32.5t-122 101.5h-2q-8 -31 -17.5 -58.5 t-15.5 -38.5l-6 -12h-418zM553 489q0 -62 35 -100.5t96 -38.5q83 0 134.5 65.5t51.5 151.5q0 61 -35.5 99.5t-95.5 38.5q-83 0 -134.5 -65.5t-51.5 -150.5z" />
<glyph unicode="c" horiz-adv-x="972" d="M61 418q0 185 82.5 333t230.5 231t335 83q191 0 331 -82l-125 -352q-80 74 -196 74q-92 0 -151.5 -61.5t-59.5 -154.5q0 -71 46 -105t120 -34q53 0 113.5 20.5t105.5 53.5l22 -352q-65 -47 -174 -72t-206 -25q-207 0 -340.5 119t-133.5 324z" />
<glyph unicode="d" horiz-adv-x="1314" d="M59 403q0 100 23.5 195.5t70.5 180t113 148.5t157 101t195 37q81 0 157.5 -26t115.5 -81q0 7 43 308q6 46 6 84l-4 63h442q6 -22 6 -67q0 -44 -8 -93l-174 -1106q-6 -43 -6 -75q0 -20 1.5 -38t2.5 -26l2 -8h-416q-8 25 -8 72q0 19 4 39q-63 -67 -151.5 -101.5 t-184.5 -34.5q-184 0 -285.5 120t-101.5 308zM518 489q0 -61 35.5 -100t95.5 -39q83 0 135 65.5t52 151.5q0 61 -35.5 99.5t-95.5 38.5q-82 0 -134.5 -66t-52.5 -150z" />
<glyph unicode="e" horiz-adv-x="1130" d="M59 403q0 143 49.5 266t136 209.5t207.5 135.5t259 49q86 0 160.5 -19t137 -58.5t98.5 -109t36 -161.5q0 -338 -402 -338q-69 0 -125 9.5t-143 33.5q9 -75 63.5 -110.5t137.5 -35.5q143 0 270 74l129 -219q-73 -54 -147 -88.5t-145.5 -48t-119 -17.5t-112.5 -4 q-218 0 -354 111.5t-136 320.5zM502 631q80 -13 131 -13q81 0 124.5 25.5t43.5 89.5q0 40 -30 62t-77 22q-59 0 -119.5 -57.5t-72.5 -128.5z" />
<glyph unicode="f" horiz-adv-x="745" d="M4 -358q33 61 47 147l146 916h-119l55 339h117q32 208 145.5 304t323.5 96q159 0 272 -31l-69 -311q-66 16 -127 16q-47 0 -70 -15.5t-29 -58.5h197l-53 -339h-197l-143 -904q-7 -45 -20 -85t-22 -57l-9 -17h-445z" />
<glyph unicode="g" horiz-adv-x="1314" d="M-49 -223l215 289q65 -46 152 -74.5t165 -28.5q258 0 281 197q-117 -111 -305 -111q-180 0 -286.5 109.5t-106.5 290.5q0 124 38 235.5t107.5 196t175 134.5t231.5 50q181 0 269 -117q6 27 15.5 51t15.5 35l6 10h446q-33 -61 -47 -147l-111 -702q-92 -574 -761 -574 q-137 0 -274 39t-226 117zM522 524q0 -57 38 -93t95 -36q73 0 128 55.5t55 129.5q0 58 -37.5 93.5t-95.5 35.5q-74 0 -128.5 -55t-54.5 -130z" />
<glyph unicode="h" horiz-adv-x="1251" d="M41 0l199 1266q6 46 6 84l-4 63h446q6 -22 6 -67q0 -37 -8 -86l-57 -342q113 147 301 147q159 0 237 -76t78 -233q0 -72 -12 -142l-74 -467q-6 -43 -6 -75q0 -20 1.5 -38t3.5 -26l1 -8h-444q-8 25 -8 72q0 41 8 88l55 352q8 58 8 86q0 45 -18 68.5t-62 23.5 q-35 0 -59.5 -15t-38.5 -44t-21 -55t-12 -64l-80 -512h-446z" />
<glyph unicode="i" horiz-adv-x="606" d="M53 72q0 41 8 88l117 737q6 43 6 76q0 19 -1.5 37t-2.5 26l-2 8h445q6 -26 6 -73q0 -51 -6 -86l-117 -738q-6 -43 -6 -75q0 -20 1.5 -38t2.5 -26l2 -8h-445q-8 25 -8 72zM223 1257q0 116 79.5 189.5t197.5 73.5q90 0 148.5 -46.5t58.5 -134.5q0 -116 -80 -189t-197 -73 q-91 0 -149 46.5t-58 133.5z" />
<glyph unicode="j" horiz-adv-x="606" d="M-188 -358l65 352q31 -10 80 -10q44 0 63 22.5t27 71.5l127 809q7 45 20.5 84.5t23.5 56.5l9 16h445q-33 -61 -47 -147l-136 -844q-35 -218 -144.5 -325t-321.5 -107q-140 0 -211 21zM223 1257q0 116 79.5 189.5t197.5 73.5q90 0 148.5 -46.5t58.5 -134.5 q0 -116 -80 -189t-197 -73q-91 0 -149 46.5t-58 133.5z" />
<glyph unicode="k" horiz-adv-x="1220" d="M41 0l199 1266q6 46 6 84l-4 63h446q6 -22 6 -67q0 -44 -8 -93l-76 -479l250 273h508l-407 -402l249 -645h-505l-107 315l-72 -69l-39 -246h-446z" />
<glyph unicode="l" horiz-adv-x="616" d="M57 72q0 36 9 88l174 1106q6 46 6 84l-4 63h444q6 -22 6 -67q0 -44 -8 -93l-174 -1106q-6 -43 -6 -75q0 -20 1.5 -38t2.5 -26l2 -8h-444q-9 25 -9 72z" />
<glyph unicode="m" horiz-adv-x="1851" d="M35 0l141 897q6 43 6 76q0 19 -1.5 37t-2.5 26l-2 8h442q11 -42 11 -71q0 -28 -6 -55q126 147 290 147q109 0 180.5 -37.5t94.5 -132.5q69 91 149.5 130.5t196.5 39.5q297 0 297 -311q0 -43 -12 -129l-76 -478q-6 -43 -6 -75q0 -20 1.5 -38t3.5 -26l1 -8h-440 q-9 25 -9 72q0 36 9 88l36 207q27 152 27 235q0 86 -70 86q-29 0 -50 -14t-32.5 -40.5t-17 -48t-10.5 -53.5l-84 -532h-447q6 36 32.5 180t42 251t15.5 171q0 41 -14.5 63.5t-52.5 22.5q-29 0 -50 -14t-33 -40.5t-17.5 -48.5t-10.5 -53l-86 -532h-446z" />
<glyph unicode="n" horiz-adv-x="1255" d="M35 0l143 897q6 47 6 84l-4 63h441q8 -21 8 -57q0 -35 -6 -69q125 147 301 147q159 0 238 -76t79 -233q0 -72 -12 -142l-76 -467q-6 -43 -6 -75q0 -20 1.5 -38t3.5 -26l1 -8h-442q-9 25 -9 72q0 36 9 88l55 352q8 58 8 84q0 92 -82 92q-29 0 -51 -11.5t-34.5 -26.5 t-22 -42t-13 -46t-8.5 -50l-82 -512h-446z" />
<glyph unicode="o" horiz-adv-x="1230" d="M59 416q0 195 88.5 344t242 227t347.5 78q85 0 159.5 -17t138 -52t109.5 -86.5t71.5 -124t25.5 -160.5q0 -196 -88 -344.5t-241 -227t-347 -78.5q-106 0 -197 27.5t-160.5 80.5t-109 138.5t-39.5 194.5zM512 481q0 -59 28 -95t85 -36q54 0 94 36t57 85.5t17 101.5 q0 59 -28.5 95.5t-84.5 36.5q-55 0 -94.5 -36.5t-56.5 -85.5t-17 -102z" />
<glyph unicode="p" horiz-adv-x="1310" d="M-6 -287q0 41 8 88l176 1096q6 47 6 84l-4 63h416q8 -21 8 -55q0 -19 -4 -43h2q137 119 332 119q184 0 285.5 -120t101.5 -308q0 -100 -23.5 -195.5t-70.5 -180t-113 -148.5t-157 -101t-195 -37q-204 0 -268 121q-8 -105 -45 -307q-7 -51 -7 -76q0 -20 2 -38t4 -25l1 -8 h-447q-8 24 -8 71zM547 487q0 -61 35 -99t96 -38q84 0 135 65t51 150q0 62 -35 101t-96 39q-83 0 -134.5 -66t-51.5 -152z" />
<glyph unicode="q" horiz-adv-x="1310" d="M59 403q0 99 23.5 194.5t70.5 180t113 148.5t157 101.5t195 37.5q193 0 295 -119q4 28 14 52.5t17 35.5l8 10h416q-33 -61 -47 -147l-174 -1100q-7 -44 -20 -82.5t-22 -55.5l-9 -17h-445q35 61 47 147q28 190 56 307q-107 -121 -308 -121q-184 0 -285.5 119.5 t-101.5 308.5zM518 487q0 -61 34.5 -99t96.5 -38q82 0 134.5 65.5t52.5 149.5q0 61 -35.5 100.5t-95.5 39.5q-83 0 -135 -66t-52 -152z" />
<glyph unicode="r" horiz-adv-x="874" d="M35 0l143 899q4 31 4 82l-4 63h440q9 -27 9 -57q0 -35 -6 -69h2q55 74 118.5 110.5t153.5 36.5q66 0 96 -21l-86 -421h-22q-56 30 -123 30q-177 0 -213 -243l-66 -410h-446z" />
<glyph unicode="s" horiz-adv-x="968" d="M-14 119l192 274q58 -45 148.5 -77.5t162.5 -32.5q58 0 58 30q0 18 -23 31.5t-59.5 24.5t-80.5 23t-88 32.5t-80.5 48.5t-59.5 74t-23 106q0 99 40.5 179.5t108.5 131t155 77t184 26.5q119 0 214 -27t191 -92l-162 -260q-55 39 -132 66.5t-140 27.5q-60 0 -60 -30 q0 -15 23 -27.5t59.5 -24t80.5 -25t88 -36.5t80.5 -53.5t59.5 -81t23 -113.5q0 -106 -44 -188.5t-118.5 -131t-165.5 -73.5t-192 -25q-281 0 -440 146z" />
<glyph unicode="t" horiz-adv-x="804" d="M70 705l53 339h137l16 103q7 43 7 90l-4 63h444q6 -22 6 -67q0 -43 -8 -92l-14 -97h206l-55 -339h-205q-4 -27 -18 -94.5t-21.5 -118.5t-7.5 -93q0 -29 17.5 -39t50.5 -10q46 0 102 17l-37 -357q-140 -35 -293 -35q-147 0 -226 62.5t-79 204.5q0 69 9.5 142t30.5 181 t26 140h-137z" />
<glyph unicode="u" horiz-adv-x="1236" d="M84 270q0 72 12 140l76 487q6 47 6 84l-4 63h444q7 -22 7 -67q0 -37 -9 -92l-49 -301q-16 -102 -16 -142q0 -86 74 -86q91 0 112 136l88 552h447l-144 -897q-6 -43 -6 -75q0 -20 1.5 -38t2.5 -26l2 -8h-432q-10 21 -10 68q0 12 2 22q-60 -53 -136.5 -84t-154.5 -31 q-149 0 -231 76t-82 219z" />
<glyph unicode="v" horiz-adv-x="1210" d="M102 1044h465l78 -536l244 536h457l-574 -1044h-426z" />
<glyph unicode="w" horiz-adv-x="1757" d="M113 1044h446l39 -544l213 544h367l41 -544l211 544h448l-492 -1044h-425l-52 504l-211 -504h-426z" />
<glyph unicode="x" horiz-adv-x="1261" d="M-84 0l485 543l-280 501h506l82 -251l161 251h506l-438 -501l313 -543h-508l-116 274l-205 -274h-506z" />
<glyph unicode="y" horiz-adv-x="1210" d="M-35 -317l141 331q66 -32 136 -32q38 0 61.5 13t34.5 46l-236 1003h465l78 -536l244 536h457l-582 -1064q-30 -55 -52 -91t-54.5 -82t-65 -75.5t-73.5 -57t-90.5 -40.5t-106.5 -13q-90 0 -190.5 15.5t-166.5 46.5z" />
<glyph unicode="z" horiz-adv-x="1062" d="M-23 0l41 258l500 447h-409l53 339h977l-39 -247l-490 -437h441l-58 -360h-1016z" />
<glyph unicode="{" horiz-adv-x="763" d="M33 479l43 271q51 0 84 27.5t48.5 74.5t23.5 108t14.5 128.5t15.5 135t32 128.5t60 108t103 75t157 28h263l-33 -205q-18 0 -46 1t-42.5 1t-35.5 -1.5t-32 -6t-25.5 -13t-22.5 -22.5t-15.5 -35t-12.5 -49l-53 -342q-16 -110 -66 -179t-149 -89l-2 -17q137 -32 137 -186 q0 -80 -33.5 -238t-33.5 -237q0 -24 10.5 -40t25 -23.5t38.5 -11t41.5 -3t44 2t36.5 1.5l-30 -205h-265q-122 0 -187 47t-65 164q0 84 35 250t35 250q0 52 -23 77t-75 25z" />
<glyph unicode="|" horiz-adv-x="788" d="M205 -358v1996h297v-1996h-297z" />
<glyph unicode="}" horiz-adv-x="763" d="M-6 -334l31 205q18 0 46 -1t42 -1t35.5 1.5t32.5 6t25 13t22 22.5t15.5 35t12.5 49l55 342q16 109 65.5 178.5t147.5 89.5l4 17q-73 17 -105 63.5t-32 122.5q0 80 33 238t33 237q0 24 -10.5 40t-25 23.5t-38 11t-41.5 3t-44.5 -2t-37.5 -1.5l33 205h262q124 0 188 -46.5 t64 -164.5q0 -84 -34 -250t-34 -250q0 -52 23 -77t76 -25l-43 -271q-65 0 -101 -44.5t-48.5 -116t-19 -158.5t-22.5 -173.5t-49 -158.5t-108.5 -117t-190.5 -45h-262z" />
<glyph unicode="~" horiz-adv-x="1505" d="M102 727q72 96 175.5 155.5t214.5 59.5q44 0 81.5 -5t68.5 -15.5t47.5 -17t41 -20t27.5 -14.5q105 -51 174 -51q48 0 107 33t98 80l184 -246q-72 -96 -175 -155.5t-214 -59.5q-44 0 -81.5 5t-68.5 15.5t-47.5 17t-41 20t-27.5 14.5q-105 51 -174 51q-50 0 -107.5 -33 t-97.5 -80z" />
<glyph unicode="&#xa1;" horiz-adv-x="694" d="M12 -369l185 924h387l-107 -924h-465zM190 799q0 122 80 195t203 73q93 0 152 -45t59 -135q0 -121 -80 -193.5t-203 -72.5q-93 0 -152 44.5t-59 133.5z" />
<glyph unicode="&#xa2;" d="M229 516q0 276 169 454t442 197l22 144h207l-25 -148q114 -21 193 -57l-135 -352q-60 40 -115 53l-57 -365q77 12 151 54l27 -332q-43 -29 -109 -50.5t-125 -29.5l-24 -145h-205l23 139q-197 14 -318 129t-121 309zM662 588q0 -85 67 -123l51 330q-58 -28 -88 -83 t-30 -124z" />
<glyph unicode="&#xa3;" d="M66 0l51 332h217q32 105 59 250h-176l39 249h182l-2 33q-2 270 128 420t399 150q109 0 194.5 -28.5t171.5 -94.5l-172 -271q-93 72 -196 72q-28 0 -50.5 -8.5t-37 -21t-24.5 -34t-15 -39.5t-7.5 -46.5t-3 -45t-0.5 -45.5l2 -41h281l-41 -249h-285q-20 -121 -59 -250h512 l-53 -332h-1114z" />
<glyph unicode="&#xa4;" d="M152 424l38 250h86q3 35 13 82h-84l39 250h129q187 428 649 428q100 0 211.5 -26t177.5 -77l-162 -332q-112 88 -233 88q-149 0 -197 -81h264l-39 -250h-329q-10 -47 -13 -82h328l-39 -250h-264q2 -24 20 -41t45 -25t50.5 -11t46.5 -3q145 0 291 100l57 -342 q-106 -69 -209.5 -97t-236.5 -28q-467 0 -521 447h-118z" />
<glyph unicode="&#xa5;" d="M88 270l39 250h360l13 82h-359l39 250h215l-225 561h485l107 -467l256 467h485l-403 -561h215l-39 -250h-358l-15 -82h359l-39 -250h-359l-43 -270h-418l43 270h-358z" />
<glyph unicode="&#xa6;" horiz-adv-x="788" d="M205 -360v872h297v-872h-297zM205 840v798h297v-798h-297z" />
<glyph unicode="&#xa7;" horiz-adv-x="1439" d="M90 -152l266 238q34 -63 116 -113.5t153 -50.5q137 0 137 80q0 29 -30.5 54.5t-79 46t-107 43.5t-117.5 53.5t-107.5 68.5t-79 96t-30.5 130q0 104 56 200.5t147 145.5q-54 57 -54 161q0 107 46 191.5t123 136t171.5 78.5t198.5 27q298 0 459 -197l-225 -227 q-47 57 -117 95t-139 38q-18 0 -36 -2.5t-38.5 -8.5t-33.5 -20t-13 -33q0 -31 31 -57t80.5 -47.5t109 -44t119.5 -53t109.5 -68.5t80.5 -96.5t31 -130.5q0 -104 -56 -197t-149 -135q55 -66 55 -178q0 -95 -33.5 -172t-90 -128t-132.5 -86t-158.5 -50t-170.5 -15 q-167 0 -291.5 50t-200.5 177zM559 602q0 -54 82 -88l285 -123q28 32 28 84q0 63 -80 96l-284 123q-31 -46 -31 -92z" />
<glyph unicode="&#xa8;" horiz-adv-x="993" d="M279 1235q0 80 55.5 137.5t136.5 57.5q61 0 100 -37t39 -99q0 -80 -55.5 -137t-136.5 -57q-61 0 -100 36.5t-39 98.5zM690 1235q0 80 57 137.5t136 57.5q62 0 101.5 -37t39.5 -99q0 -80 -57 -137t-136 -57q-63 0 -102 36.5t-39 98.5z" />
<glyph unicode="&#xa9;" horiz-adv-x="1536" d="M0 707q0 151 56.5 286t153 231.5t231.5 153t286 56.5t286 -56.5t231.5 -153t153 -231.5t56.5 -286t-56.5 -286t-153 -231.5t-231.5 -153t-286 -56.5t-286 56.5t-231.5 153t-153 231.5t-56.5 286zM123 707q0 -172 78 -310.5t216 -216.5t310 -78t310 78t216 216.5t78 310.5 t-78 310t-216 216t-310 78t-310 -78t-216 -216t-78 -310zM307 707q0 197 128.5 318.5t326.5 121.5q190 0 303 -113l-82 -174q-92 92 -215 92q-99 0 -167.5 -62t-68.5 -179q0 -116 68 -178t168 -62q133 0 225 92l82 -174q-123 -123 -313 -123q-198 0 -326.5 122t-128.5 319z " />
<glyph unicode="&#xaa;" horiz-adv-x="794" d="M115 575q0 55 16 96t52 66t65.5 40.5t88 23t86 9.5t89.5 4q17 1 25 1l2 16q0 41 -88 41q-51 0 -110 -15.5t-101 -41.5l-37 182q158 64 313 64q65 0 115 -10t93.5 -34.5t67 -71.5t23.5 -114q0 -60 -9.5 -128.5t-26.5 -153.5t-23 -127h-264v57q-75 -69 -173 -69 q-88 0 -146 40.5t-58 124.5zM399 612q0 -37 50 -37q26 0 55 25l12 80q-3 0 -24.5 -1.5t-28.5 -2.5t-23 -5.5t-22.5 -11t-12.5 -18.5t-6 -29z" />
<glyph unicode="&#xab;" horiz-adv-x="1290" d="M176 522l414 482l182 -144l-285 -338l177 -338l-228 -143zM643 522l414 482l182 -144l-285 -338l176 -338l-227 -143z" />
<glyph unicode="&#xac;" horiz-adv-x="1505" d="M123 758v327h1177v-757h-327v430h-850z" />
<glyph unicode="&#xad;" horiz-adv-x="763" d="M84 362l55 349h623l-55 -349h-623z" />
<glyph unicode="&#xae;" horiz-adv-x="1536" d="M0 707q0 151 56.5 286t153 231.5t231.5 153t286 56.5t286 -56.5t231.5 -153t153 -231.5t56.5 -286t-56.5 -286t-153 -231.5t-231.5 -153t-286 -56.5t-286 56.5t-231.5 153t-153 231.5t-56.5 286zM123 707q0 -172 78 -310.5t216 -216.5t310 -78t310 78t216 216.5t78 310.5 t-78 310t-216 216t-310 78t-310 -78t-216 -216t-78 -310zM424 276v861h338q153 0 236 -71t83 -196q0 -58 -16.5 -104t-43.5 -73.5t-50.5 -43t-48.5 -24.5l194 -349h-256l-153 318h-64v-318h-219zM643 768h84q63 0 98 20t35 76q0 57 -35.5 78t-97.5 21h-84v-195z" />
<glyph unicode="&#xaf;" horiz-adv-x="993" d="M264 1161l33 205h741l-32 -205h-742z" />
<glyph unicode="&#xb0;" horiz-adv-x="921" d="M66 1157q0 146 103.5 247t250.5 101t249.5 -101t102.5 -247t-102.5 -247t-249.5 -101t-250.5 101t-103.5 247zM256 1157q0 -70 48 -120t116 -50q69 0 118.5 50.5t49.5 119.5t-49.5 118.5t-118.5 49.5t-116.5 -49.5t-47.5 -118.5z" />
<glyph unicode="&#xb1;" horiz-adv-x="1505" d="M123 41v328h1177v-328h-1177zM123 737v328h420v307h338v-307h419v-328h-419v-307h-338v307h-420z" />
<glyph unicode="&#xb2;" horiz-adv-x="892" d="M166 764l301 221q6 5 28.5 20.5t33.5 24t29.5 25t28 29.5t17.5 31t8 36q0 19 -20.5 27t-42.5 8q-102 0 -232 -105l-73 230q71 56 173.5 89.5t196.5 33.5q43 0 84 -6.5t82 -22.5t71 -40t48.5 -62t18.5 -86q0 -38 -10 -74.5t-23.5 -64t-41 -59t-46.5 -50.5t-57.5 -47.5 t-57.5 -41.5t-61 -40q-8 -5 -12.5 -8t-11 -7t-11.5 -8h311l-39 -244h-682z" />
<glyph unicode="&#xb3;" horiz-adv-x="892" d="M158 709l170 196q30 -44 84 -74t106 -30q39 0 67.5 16t28.5 51q0 16 -13.5 26t-38 13t-44 4t-46 -0.5t-28.5 -1.5l35 213q8 0 35.5 -2t45 -1.5t39.5 5t33 18t11 36.5q0 28 -61 28q-101 0 -215 -78l-72 207q87 52 166.5 75.5t177.5 23.5q50 0 99.5 -11t96.5 -34t76 -64.5 t29 -95.5q0 -66 -30 -119.5t-87 -85.5q90 -46 90 -147q0 -96 -64.5 -171.5t-155 -112t-183.5 -36.5q-116 0 -201 34t-151 118z" />
<glyph unicode="&#xb4;" horiz-adv-x="993" d="M379 1116l186 297h359l-236 -297h-309z" />
<glyph unicode="&#xb5;" horiz-adv-x="1236" d="M-27 -358l224 1402h446q-2 -11 -32 -173.5t-45 -266.5t-15 -164q0 -86 74 -86q92 0 112 138l88 552h447l-166 -1046h-426l8 90q-42 -35 -109.5 -56.5t-129.5 -23.5l-33 -366h-443z" />
<glyph unicode="&#xb6;" horiz-adv-x="1439" d="M143 815q0 271 158 434.5t432 163.5h778l-45 -291h-80l-233 -1480h-279l234 1480h-182l-236 -1480h-278l125 786q-182 8 -288 107.5t-106 279.5z" />
<glyph unicode="&#xb7;" horiz-adv-x="993" d="M305 559q0 115 79.5 187.5t195.5 72.5q90 0 148 -46t58 -134q0 -115 -80 -187.5t-196 -72.5q-90 0 -147.5 46t-57.5 134z" />
<glyph unicode="&#xb8;" horiz-adv-x="993" d="M178 -307l228 307h270l-189 -307h-309z" />
<glyph unicode="&#xb9;" horiz-adv-x="892" d="M342 1196l35 217h457l-136 -850h-307l98 633h-147z" />
<glyph unicode="&#xba;" horiz-adv-x="892" d="M152 676q0 173 119 279t298 106q134 0 224 -68.5t90 -197.5q0 -173 -118.5 -279t-297.5 -106q-87 0 -156.5 27.5t-114 89.5t-44.5 149zM434 709q0 -35 17.5 -58.5t50.5 -23.5q48 0 74 43.5t26 95.5q0 35 -16.5 58.5t-48.5 23.5q-50 0 -76.5 -43.5t-26.5 -95.5z" />
<glyph unicode="&#xbb;" horiz-adv-x="1290" d="M123 184l285 338l-179 338l228 144l260 -482l-412 -481zM590 184l284 338l-178 338l230 144l258 -482l-412 -481z" />
<glyph unicode="&#xbc;" horiz-adv-x="1986" d="M264 1194l35 219h457l-135 -852h-310l101 633h-148zM365 57l1073 1397l157 -108l-1073 -1397zM1042 154l33 206l484 492h335l-73 -471h108l-37 -227h-108l-25 -154h-307l23 154h-433zM1360 381h158l28 186z" />
<glyph unicode="&#xbd;" horiz-adv-x="1986" d="M244 1194l35 219h456l-135 -852h-309l100 633h-147zM334 57l1073 1397l160 -108l-1075 -1397zM1137 193l301 219q4 3 28.5 20.5t34 24.5t29 25t28.5 31t17 31t8 36q0 32 -61 32q-108 0 -234 -102l-74 227q71 56 174.5 90.5t196.5 34.5q44 0 85 -6.5t81.5 -22.5t70 -40 t48 -62t18.5 -86q0 -30 -6 -58t-14 -51t-25 -48.5t-29.5 -42.5t-38 -40t-39.5 -35.5t-45 -34.5t-44 -31t-47 -31t-44 -29h312l-39 -244h-682z" />
<glyph unicode="&#xbe;" horiz-adv-x="1986" d="M158 707l170 196q30 -43 84 -72.5t106 -29.5q96 0 96 67q0 16 -13.5 26t-38 13t-44 4t-46 -0.5t-28.5 -1.5l35 213q8 0 35.5 -2t45 -1.5t39.5 5t33 18t11 36.5q0 26 -61 26q-106 0 -215 -78l-72 209q87 52 166.5 75.5t177.5 23.5q50 0 99.5 -11t96.5 -34t76 -64.5 t29 -95.5q0 -66 -30 -119.5t-87 -85.5q43 -22 66.5 -61t23.5 -86q0 -96 -64.5 -171.5t-155 -112t-183.5 -36.5q-116 0 -201 33.5t-151 116.5zM477 57l1073 1397l158 -108l-1073 -1397zM1042 154l33 206l484 492h335l-73 -471h108l-37 -227h-108l-25 -154h-307l23 154h-433z M1360 381h158l28 186z" />
<glyph unicode="&#xbf;" horiz-adv-x="1142" d="M51 -53q0 44 6 83.5t15 70.5t27 61t33.5 51t43 45t47 38.5t55 35.5t57 33t62 33.5t62.5 33.5q13 7 21.5 17.5t13 24.5t6.5 25t4 29t4 27h377q-4 -22 -10.5 -70.5t-10 -68t-14.5 -54.5t-25.5 -54.5t-40 -43t-61.5 -41.5q-7 -4 -45 -20.5t-69.5 -33t-68 -38t-58 -45.5 t-21.5 -45q0 -64 143 -64q145 0 311 99l46 -342q-115 -65 -229.5 -94t-264.5 -29q-62 0 -121.5 13t-113 40.5t-93.5 66t-64 94.5t-24 122zM496 799q0 122 79.5 195t200.5 73q93 0 152 -45t59 -135q0 -121 -79 -193.5t-201 -72.5q-93 0 -152 44.5t-59 133.5z" />
<glyph unicode="&#xc0;" horiz-adv-x="1409" d="M-63 0l696 1413h495l250 -1413h-487l-21 199h-383l-84 -199h-466zM614 1772h359l92 -302h-309zM637 555h197l-41 369z" />
<glyph unicode="&#xc1;" horiz-adv-x="1409" d="M-63 0l696 1413h495l250 -1413h-487l-21 199h-383l-84 -199h-466zM637 555h197l-41 369zM715 1470l186 302h361l-238 -302h-309z" />
<glyph unicode="&#xc2;" horiz-adv-x="1409" d="M-63 0l696 1413h495l250 -1413h-487l-21 199h-383l-84 -199h-466zM508 1470l207 302h444l113 -302h-289l-68 162l-116 -162h-291zM637 555h197l-41 369z" />
<glyph unicode="&#xc3;" horiz-adv-x="1409" d="M-63 0l696 1413h495l250 -1413h-487l-21 199h-383l-84 -199h-466zM487 1491q19 112 111 198.5t203 86.5q50 0 91 -14t63.5 -31t49.5 -31t52 -14q64 0 106 86l176 -21q-18 -112 -110 -198.5t-203 -86.5q-50 0 -91 14.5t-63.5 32t-49.5 32t-52 14.5q-63 0 -104 -89z M637 555h197l-41 369z" />
<glyph unicode="&#xc4;" horiz-adv-x="1409" d="M-63 0l696 1413h495l250 -1413h-487l-21 199h-383l-84 -199h-466zM545 1585q0 82 56 139.5t136 57.5q63 0 102.5 -36.5t39.5 -98.5q0 -80 -57 -138.5t-136 -58.5q-62 0 -101.5 37t-39.5 98zM637 555h197l-41 369zM948 1585q0 82 56 139.5t137 57.5q63 0 102 -36.5 t39 -98.5q0 -80 -57 -138.5t-138 -58.5q-61 0 -100 37t-39 98z" />
<glyph unicode="&#xc5;" horiz-adv-x="1409" d="M-63 0l696 1413h495l250 -1413h-487l-21 199h-383l-84 -199h-466zM637 555h197l-41 369zM657 1606q0 123 85.5 195.5t211.5 72.5q96 0 161 -46t65 -138q0 -123 -86 -197t-211 -74q-96 0 -161 47.5t-65 139.5zM819 1628q0 -36 23.5 -54t60.5 -18q50 0 81.5 30.5t31.5 80.5 q0 35 -23 52.5t-61 17.5q-50 0 -81.5 -29.5t-31.5 -79.5z" />
<glyph unicode="&#xc6;" horiz-adv-x="1875" d="M-133 0l954 1413h1143l-57 -366h-463l-23 -150h432l-59 -367h-432l-25 -159h482l-60 -371h-928l33 199h-370l-121 -199h-506zM705 555h215l77 489z" />
<glyph unicode="&#xc7;" horiz-adv-x="1261" d="M96 557q0 188 63 350.5t174 278.5t271.5 182t347.5 66q116 0 243 -34t191 -102l-182 -391q-53 54 -132 88.5t-152 34.5q-163 0 -264 -110.5t-101 -274.5q0 -116 72.5 -182t189.5 -66q96 0 186 33.5t160 95.5l72 -372q-75 -66 -172 -110t-195 -56l-170 -295h-389l203 307 q-197 53 -306.5 202t-109.5 355z" />
<glyph unicode="&#xc8;" horiz-adv-x="1150" d="M55 0l224 1413h968l-59 -366h-520l-25 -150h492l-58 -367h-491l-25 -157h541l-60 -373h-987zM541 1772h358l92 -302h-309z" />
<glyph unicode="&#xc9;" horiz-adv-x="1150" d="M55 0l224 1413h968l-59 -366h-520l-25 -150h492l-58 -367h-491l-25 -157h541l-60 -373h-987zM553 1470l186 302h359l-236 -302h-309z" />
<glyph unicode="&#xca;" horiz-adv-x="1150" d="M55 0l224 1413h968l-59 -366h-520l-25 -150h492l-58 -367h-491l-25 -157h541l-60 -373h-987zM391 1470l207 302h444l111 -302h-289l-67 162l-117 -162h-289z" />
<glyph unicode="&#xcb;" horiz-adv-x="1150" d="M55 0l224 1413h968l-59 -366h-520l-25 -150h492l-58 -367h-491l-25 -157h541l-60 -373h-987zM426 1585q0 82 56.5 139.5t138.5 57.5q61 0 100 -36.5t39 -98.5q0 -80 -56 -138.5t-137 -58.5q-62 0 -101.5 37t-39.5 98zM836 1585q0 82 55.5 139.5t136.5 57.5 q62 0 100.5 -36.5t38.5 -98.5q0 -81 -55.5 -139t-136.5 -58q-62 0 -100.5 37t-38.5 98z" />
<glyph unicode="&#xcc;" horiz-adv-x="647" d="M55 0l224 1413h448l-223 -1413h-449zM283 1772h358l92 -302h-309z" />
<glyph unicode="&#xcd;" horiz-adv-x="647" d="M55 0l224 1413h448l-223 -1413h-449zM293 1470l186 302h359l-238 -302h-307z" />
<glyph unicode="&#xce;" horiz-adv-x="647" d="M55 0l224 1413h448l-223 -1413h-449zM131 1470l207 302h444l113 -302h-291l-65 162l-119 -162h-289z" />
<glyph unicode="&#xcf;" horiz-adv-x="647" d="M55 0l224 1413h448l-223 -1413h-449zM166 1585q0 82 55.5 139.5t136.5 57.5q62 0 101 -36.5t39 -98.5q0 -80 -56 -138.5t-137 -58.5q-61 0 -100 37t-39 98zM573 1585q0 82 56 139.5t137 57.5q63 0 102 -36.5t39 -98.5q0 -80 -56.5 -138.5t-135.5 -58.5q-62 0 -102 37 t-40 98z" />
<glyph unicode="&#xd0;" horiz-adv-x="1429" d="M47 571l47 291h99l86 551h514q114 0 210 -16.5t182.5 -56.5t146.5 -101t95 -155.5t35 -215.5q0 -419 -234.5 -643.5t-647.5 -224.5h-525l90 571h-98zM563 391h103q89 0 156 32.5t106 90t58.5 129.5t19.5 158q0 231 -240 231h-100l-27 -170h190l-43 -280h-192z" />
<glyph unicode="&#xd1;" horiz-adv-x="1509" d="M55 0l224 1413h485l266 -778q9 92 24.5 201.5t27 183.5t33 205.5t30.5 187.5h436l-223 -1413h-467l-285 780q-9 -92 -24.5 -202.5t-26.5 -181.5t-33 -208t-30 -188h-437zM537 1491q19 112 110.5 198.5t202.5 86.5q50 0 91 -14t63.5 -31t49.5 -31t52 -14q64 0 106 86 l177 -21q-18 -112 -110.5 -198.5t-203.5 -86.5q-50 0 -91 14.5t-63.5 32t-49.5 32t-52 14.5q-63 0 -104 -89z" />
<glyph unicode="&#xd2;" horiz-adv-x="1568" d="M96 561q0 252 110 451.5t308 311.5t449 112q185 0 327 -66t224.5 -200t82.5 -320q0 -252 -109.5 -451.5t-307 -311.5t-449.5 -112q-138 0 -253.5 38.5t-200.5 111t-133 184.5t-48 252zM555 643q0 -115 64.5 -185.5t177.5 -70.5q103 0 184 58.5t121.5 148.5t40.5 192 q0 115 -64.5 185.5t-177.5 70.5q-103 0 -184 -58.5t-121.5 -148.5t-40.5 -192zM674 1772h358l92 -302h-309z" />
<glyph unicode="&#xd3;" horiz-adv-x="1568" d="M96 561q0 252 110 451.5t308 311.5t449 112q185 0 327 -66t224.5 -200t82.5 -320q0 -252 -109.5 -451.5t-307 -311.5t-449.5 -112q-138 0 -253.5 38.5t-200.5 111t-133 184.5t-48 252zM555 643q0 -115 64.5 -185.5t177.5 -70.5q103 0 184 58.5t121.5 148.5t40.5 192 q0 115 -64.5 185.5t-177.5 70.5q-103 0 -184 -58.5t-121.5 -148.5t-40.5 -192zM813 1470l186 302h361l-238 -302h-309z" />
<glyph unicode="&#xd4;" horiz-adv-x="1568" d="M96 561q0 252 110 451.5t308 311.5t449 112q185 0 327 -66t224.5 -200t82.5 -320q0 -252 -109.5 -451.5t-307 -311.5t-449.5 -112q-138 0 -253.5 38.5t-200.5 111t-133 184.5t-48 252zM555 643q0 -115 64.5 -185.5t177.5 -70.5q103 0 184 58.5t121.5 148.5t40.5 192 q0 115 -64.5 185.5t-177.5 70.5q-103 0 -184 -58.5t-121.5 -148.5t-40.5 -192zM588 1470l207 302h444l111 -302h-289l-68 162l-116 -162h-289z" />
<glyph unicode="&#xd5;" horiz-adv-x="1568" d="M96 561q0 252 110 451.5t308 311.5t449 112q185 0 327 -66t224.5 -200t82.5 -320q0 -252 -109.5 -451.5t-307 -311.5t-449.5 -112q-138 0 -253.5 38.5t-200.5 111t-133 184.5t-48 252zM555 643q0 -115 64.5 -185.5t177.5 -70.5q103 0 184 58.5t121.5 148.5t40.5 192 q0 115 -64.5 185.5t-177.5 70.5q-103 0 -184 -58.5t-121.5 -148.5t-40.5 -192zM567 1491q18 111 110 198t202 87q50 0 91.5 -14t64 -31t49.5 -31t51 -14q64 0 106 86l176 -21q-18 -112 -109 -198.5t-202 -86.5q-50 0 -91 14.5t-63.5 32t-49.5 32t-52 14.5q-66 0 -107 -89z " />
<glyph unicode="&#xd6;" horiz-adv-x="1568" d="M96 561q0 252 110 451.5t308 311.5t449 112q185 0 327 -66t224.5 -200t82.5 -320q0 -252 -109.5 -451.5t-307 -311.5t-449.5 -112q-138 0 -253.5 38.5t-200.5 111t-133 184.5t-48 252zM555 643q0 -115 64.5 -185.5t177.5 -70.5q103 0 184 58.5t121.5 148.5t40.5 192 q0 115 -64.5 185.5t-177.5 70.5q-103 0 -184 -58.5t-121.5 -148.5t-40.5 -192zM621 1585q0 82 56.5 139.5t137.5 57.5q61 0 100 -36.5t39 -98.5q0 -81 -55.5 -139t-136.5 -58q-62 0 -101.5 37t-39.5 98zM1030 1585q0 82 56 139.5t137 57.5q62 0 100.5 -36.5t38.5 -98.5 q0 -80 -56 -138.5t-137 -58.5q-62 0 -100.5 37t-38.5 98z" />
<glyph unicode="&#xd7;" horiz-adv-x="1505" d="M127 362l348 345l-348 342l242 241l342 -344l344 344l239 -241l-348 -342l348 -345l-239 -239l-344 342l-342 -342z" />
<glyph unicode="&#xd8;" horiz-adv-x="1568" d="M14 125l154 137q-72 127 -72 299q0 252 110 451.5t308 311.5t449 112q233 0 393 -103l164 148l159 -193l-151 -137q69 -130 69 -301q0 -252 -109.5 -451.5t-307 -311.5t-449.5 -112q-231 0 -393 105l-164 -148zM555 643l2 -31l453 408q-48 22 -109 22q-104 0 -186 -58 t-123 -149t-37 -192zM698 406q49 -19 99 -19q104 0 185 58t122 148.5t39 192.5v19z" />
<glyph unicode="&#xd9;" horiz-adv-x="1429" d="M127 432q0 72 14 172l129 809h451l-131 -829q-6 -34 -6 -66q0 -65 39.5 -101t103.5 -36q171 0 203 203l131 829h450l-127 -809q-50 -311 -226.5 -469t-493.5 -158q-116 0 -212 27t-169.5 80.5t-114.5 142.5t-41 205zM614 1772h359l92 -302h-309z" />
<glyph unicode="&#xda;" horiz-adv-x="1429" d="M127 432q0 72 14 172l129 809h451l-131 -829q-6 -34 -6 -66q0 -65 39.5 -101t103.5 -36q171 0 203 203l131 829h450l-127 -809q-50 -311 -226.5 -469t-493.5 -158q-116 0 -212 27t-169.5 80.5t-114.5 142.5t-41 205zM735 1470l187 302h358l-238 -302h-307z" />
<glyph unicode="&#xdb;" horiz-adv-x="1429" d="M127 432q0 72 14 172l129 809h451l-131 -829q-6 -34 -6 -66q0 -65 39.5 -101t103.5 -36q171 0 203 203l131 829h450l-127 -809q-50 -311 -226.5 -469t-493.5 -158q-116 0 -212 27t-169.5 80.5t-114.5 142.5t-41 205zM518 1470l207 302h444l113 -302h-291l-65 162 l-119 -162h-289z" />
<glyph unicode="&#xdc;" horiz-adv-x="1429" d="M127 432q0 72 14 172l129 809h451l-131 -829q-6 -34 -6 -66q0 -65 39.5 -101t103.5 -36q171 0 203 203l131 829h450l-127 -809q-50 -311 -226.5 -469t-493.5 -158q-116 0 -212 27t-169.5 80.5t-114.5 142.5t-41 205zM553 1585q0 82 55.5 139.5t136.5 57.5 q63 0 102.5 -36.5t39.5 -98.5q0 -80 -57 -138.5t-138 -58.5q-61 0 -100 37t-39 98zM961 1585q0 82 56 139.5t136 57.5q63 0 102 -36.5t39 -98.5q0 -80 -56.5 -138.5t-135.5 -58.5q-62 0 -101.5 37t-39.5 98z" />
<glyph unicode="&#xdd;" d="M139 1413h498l125 -471l274 471h498l-610 -860l-86 -553h-449l88 553zM670 1470l188 302h359l-238 -302h-309z" />
<glyph unicode="&#xde;" horiz-adv-x="1241" d="M55 0l224 1413h448l-29 -188q57 0 95 -1t93 -5t92.5 -11t84 -20.5t77.5 -32.5t63 -48t50.5 -66t30.5 -87t12 -110q0 -286 -164 -440t-444 -154h-145l-39 -250h-449zM596 602h66q80 0 126 43t46 123q0 60 -36.5 82t-101.5 22h-57z" />
<glyph unicode="&#xdf;" horiz-adv-x="1310" d="M-41 -358q33 61 47 147l172 1081q46 292 208 428t458 136q66 0 128 -9t124.5 -31.5t108.5 -57.5t75 -91.5t29 -128.5q0 -115 -54 -199.5t-147 -121.5q96 -33 145.5 -111t49.5 -182q0 -109 -31 -197t-86 -148.5t-132 -101.5t-167.5 -59.5t-194.5 -18.5q-57 0 -155 23 l71 322q32 -11 74 -11q86 0 138 42t52 126q0 27 -8 47t-24.5 32t-33 19t-44 10t-45 4t-47.5 1l49 311q35 0 58 1.5t51.5 9t45.5 21t29 38.5t12 61q0 50 -33.5 74.5t-84.5 24.5q-41 0 -71 -14t-47.5 -41t-26.5 -56.5t-15 -69.5l-180 -1151q-7 -45 -20 -85t-22 -57l-9 -17 h-447z" />
<glyph unicode="&#xe0;" horiz-adv-x="1314" d="M59 403q0 100 23.5 195.5t70.5 180t113 148.5t157 101t195 37q81 0 157.5 -26t115.5 -81q4 56 8 86h444l-141 -897q-6 -43 -6 -75q0 -20 1.5 -38t2.5 -26l2 -8h-416q-8 25 -8 72q0 19 4 39q-63 -67 -151.5 -101.5t-184.5 -34.5q-184 0 -285.5 120t-101.5 308zM461 1413 h358l92 -297h-309zM518 489q0 -61 35.5 -100t95.5 -39q83 0 135 65.5t52 151.5q0 61 -35.5 99.5t-95.5 38.5q-82 0 -134.5 -66t-52.5 -150z" />
<glyph unicode="&#xe1;" horiz-adv-x="1314" d="M59 403q0 100 23.5 195.5t70.5 180t113 148.5t157 101t195 37q81 0 157.5 -26t115.5 -81q4 56 8 86h444l-141 -897q-6 -43 -6 -75q0 -20 1.5 -38t2.5 -26l2 -8h-416q-8 25 -8 72q0 19 4 39q-63 -67 -151.5 -101.5t-184.5 -34.5q-184 0 -285.5 120t-101.5 308zM514 1116 l186 297h359l-236 -297h-309zM518 489q0 -61 35.5 -100t95.5 -39q83 0 135 65.5t52 151.5q0 61 -35.5 99.5t-95.5 38.5q-82 0 -134.5 -66t-52.5 -150z" />
<glyph unicode="&#xe2;" horiz-adv-x="1314" d="M59 403q0 100 23.5 195.5t70.5 180t113 148.5t157 101t195 37q81 0 157.5 -26t115.5 -81q4 56 8 86h444l-141 -897q-6 -43 -6 -75q0 -20 1.5 -38t2.5 -26l2 -8h-416q-8 25 -8 72q0 19 4 39q-63 -67 -151.5 -101.5t-184.5 -34.5q-184 0 -285.5 120t-101.5 308zM332 1116 l207 297h444l113 -297h-291l-66 170l-118 -170h-289zM518 489q0 -61 35.5 -100t95.5 -39q83 0 135 65.5t52 151.5q0 61 -35.5 99.5t-95.5 38.5q-82 0 -134.5 -66t-52.5 -150z" />
<glyph unicode="&#xe3;" horiz-adv-x="1314" d="M59 403q0 100 23.5 195.5t70.5 180t113 148.5t157 101t195 37q81 0 157.5 -26t115.5 -81q4 56 8 86h444l-141 -897q-6 -43 -6 -75q0 -20 1.5 -38t2.5 -26l2 -8h-416q-8 25 -8 72q0 19 4 39q-63 -67 -151.5 -101.5t-184.5 -34.5q-184 0 -285.5 120t-101.5 308zM348 1137 q18 110 109.5 196t201.5 86q50 0 91.5 -14.5t64 -31.5t49.5 -31.5t51 -14.5q65 0 107 86l176 -20q-18 -110 -109.5 -196.5t-201.5 -86.5q-50 0 -91 14.5t-63.5 31.5t-49.5 31.5t-52 14.5q-35 0 -62 -25t-43 -61zM518 489q0 -61 35.5 -100t95.5 -39q83 0 135 65.5t52 151.5 q0 61 -35.5 99.5t-95.5 38.5q-82 0 -134.5 -66t-52.5 -150z" />
<glyph unicode="&#xe4;" horiz-adv-x="1314" d="M59 403q0 100 23.5 195.5t70.5 180t113 148.5t157 101t195 37q81 0 157.5 -26t115.5 -81q4 56 8 86h444l-141 -897q-6 -43 -6 -75q0 -20 1.5 -38t2.5 -26l2 -8h-416q-8 25 -8 72q0 19 4 39q-63 -67 -151.5 -101.5t-184.5 -34.5q-184 0 -285.5 120t-101.5 308zM369 1235 q0 80 55.5 137.5t136.5 57.5q61 0 100 -37t39 -99q0 -80 -55.5 -137t-136.5 -57q-61 0 -100 36.5t-39 98.5zM518 489q0 -61 35.5 -100t95.5 -39q83 0 135 65.5t52 151.5q0 61 -35.5 99.5t-95.5 38.5q-82 0 -134.5 -66t-52.5 -150zM780 1235q0 80 57 137.5t136 57.5 q62 0 101.5 -37t39.5 -99q0 -80 -56.5 -137t-135.5 -57q-63 0 -102.5 36.5t-39.5 98.5z" />
<glyph unicode="&#xe5;" horiz-adv-x="1314" d="M59 403q0 100 23.5 195.5t70.5 180t113 148.5t157 101t195 37q81 0 157.5 -26t115.5 -81q4 56 8 86h444l-141 -897q-6 -43 -6 -75q0 -20 1.5 -38t2.5 -26l2 -8h-416q-8 25 -8 72q0 19 4 39q-63 -67 -151.5 -101.5t-184.5 -34.5q-184 0 -285.5 120t-101.5 308zM475 1290 q0 122 85.5 194t209.5 72q96 0 160.5 -46t64.5 -138q0 -122 -85.5 -194t-209.5 -72q-96 0 -160.5 46t-64.5 138zM518 489q0 -61 35.5 -100t95.5 -39q83 0 135 65.5t52 151.5q0 61 -35.5 99.5t-95.5 38.5q-82 0 -134.5 -66t-52.5 -150zM637 1313q0 -36 23.5 -54t60.5 -18 q50 0 81.5 29.5t31.5 79.5q0 36 -23.5 53.5t-60.5 17.5q-50 0 -81.5 -29t-31.5 -79z" />
<glyph unicode="&#xe6;" horiz-adv-x="1751" d="M27 250q0 63 14.5 115.5t38 90.5t61.5 68.5t76 50t90 34t96.5 22t102.5 12t100 6t97 2.5h6q2 16 2 33q0 28 -27.5 45.5t-57 22t-61.5 4.5q-79 0 -167 -26t-162 -68l-64 294q246 109 502 109q220 0 336 -80q150 78 321 78q86 0 160.5 -19t137 -58.5t98.5 -109t36 -161.5 q0 -338 -401 -338q-69 0 -125 9.5t-143 33.5q9 -75 63 -110.5t137 -35.5q149 0 271 74l129 -219q-73 -54 -147 -88.5t-145.5 -48t-119.5 -17.5t-113 -4q-251 0 -383 138q-99 -74 -196.5 -104t-227.5 -30q-69 0 -127 15.5t-106 47t-75 86t-27 126.5zM481 324q0 -34 24.5 -50 t59.5 -16q63 0 125 41q-10 48 -10 94v31q-41 -1 -64 -2t-53 -7t-45 -16t-26 -29t-11 -46zM1122 631q80 -13 131 -13q81 0 124.5 25.5t43.5 89.5q0 39 -28.5 61.5t-61.5 22.5q-76 0 -136.5 -56.5t-72.5 -129.5z" />
<glyph unicode="&#xe7;" horiz-adv-x="972" d="M59 416q0 188 84 336.5t232 230.5t334 82q191 0 331 -82l-125 -352q-80 74 -196 74q-91 0 -151 -62t-60 -154q0 -71 46 -105t120 -34q53 0 113.5 20.5t105.5 53.5l22 -352q-87 -63 -225 -82l-178 -287h-358l223 291q-148 39 -233 153t-85 269z" />
<glyph unicode="&#xe8;" horiz-adv-x="1130" d="M59 403q0 143 49.5 266t136 209.5t207.5 135.5t259 49q86 0 160.5 -19t137 -58.5t98.5 -109t36 -161.5q0 -338 -402 -338q-69 0 -125 9.5t-143 33.5q9 -75 63.5 -110.5t137.5 -35.5q143 0 270 74l129 -219q-73 -54 -147 -88.5t-145.5 -48t-119 -17.5t-112.5 -4 q-218 0 -354 111.5t-136 320.5zM340 1413h358l93 -297h-310zM502 631q80 -13 131 -13q81 0 124.5 25.5t43.5 89.5q0 40 -30 62t-77 22q-59 0 -119.5 -57.5t-72.5 -128.5z" />
<glyph unicode="&#xe9;" horiz-adv-x="1130" d="M59 403q0 143 49.5 266t136 209.5t207.5 135.5t259 49q86 0 160.5 -19t137 -58.5t98.5 -109t36 -161.5q0 -338 -402 -338q-69 0 -125 9.5t-143 33.5q9 -75 63.5 -110.5t137.5 -35.5q143 0 270 74l129 -219q-73 -54 -147 -88.5t-145.5 -48t-119 -17.5t-112.5 -4 q-218 0 -354 111.5t-136 320.5zM451 1116l186 297h358l-235 -297h-309zM502 631q80 -13 131 -13q81 0 124.5 25.5t43.5 89.5q0 40 -30 62t-77 22q-59 0 -119.5 -57.5t-72.5 -128.5z" />
<glyph unicode="&#xea;" horiz-adv-x="1130" d="M59 403q0 143 49.5 266t136 209.5t207.5 135.5t259 49q86 0 160.5 -19t137 -58.5t98.5 -109t36 -161.5q0 -338 -402 -338q-69 0 -125 9.5t-143 33.5q9 -75 63.5 -110.5t137.5 -35.5q143 0 270 74l129 -219q-73 -54 -147 -88.5t-145.5 -48t-119 -17.5t-112.5 -4 q-218 0 -354 111.5t-136 320.5zM279 1116l206 297h445l112 -297h-290l-66 170l-119 -170h-288zM502 631q80 -13 131 -13q81 0 124.5 25.5t43.5 89.5q0 40 -30 62t-77 22q-59 0 -119.5 -57.5t-72.5 -128.5z" />
<glyph unicode="&#xeb;" horiz-adv-x="1130" d="M59 403q0 143 49.5 266t136 209.5t207.5 135.5t259 49q86 0 160.5 -19t137 -58.5t98.5 -109t36 -161.5q0 -338 -402 -338q-69 0 -125 9.5t-143 33.5q9 -75 63.5 -110.5t137.5 -35.5q143 0 270 74l129 -219q-73 -54 -147 -88.5t-145.5 -48t-119 -17.5t-112.5 -4 q-218 0 -354 111.5t-136 320.5zM311 1235q0 80 56 137.5t137 57.5q61 0 100 -37t39 -99q0 -80 -55.5 -137t-136.5 -57q-61 0 -100.5 36.5t-39.5 98.5zM502 631q80 -13 131 -13q81 0 124.5 25.5t43.5 89.5q0 40 -30 62t-77 22q-59 0 -119.5 -57.5t-72.5 -128.5zM723 1235 q0 80 56.5 137.5t135.5 57.5q63 0 102.5 -37t39.5 -99q0 -80 -57 -137t-136 -57q-63 0 -102 36.5t-39 98.5z" />
<glyph unicode="&#xec;" horiz-adv-x="606" d="M51 72q0 41 8 88l119 737q6 43 6 76q0 19 -1.5 37t-2.5 26l-2 8h445q6 -26 6 -73q0 -51 -6 -86l-119 -738q-6 -43 -6 -75q0 -20 1.5 -38t2.5 -26l2 -8h-445q-8 25 -8 72zM209 1413h358l92 -301h-309z" />
<glyph unicode="&#xed;" horiz-adv-x="606" d="M51 72q0 41 8 88l119 737q6 43 6 76q0 19 -1.5 37t-2.5 26l-2 8h445q6 -26 6 -73q0 -51 -6 -86l-119 -738q-6 -43 -6 -75q0 -20 1.5 -38t2.5 -26l2 -8h-445q-8 25 -8 72zM211 1112l186 301h359l-236 -301h-309z" />
<glyph unicode="&#xee;" horiz-adv-x="606" d="M51 72q0 41 8 88l119 737q6 43 6 76q0 19 -1.5 37t-2.5 26l-2 8h445q6 -26 6 -73q0 -51 -6 -86l-119 -738q-6 -43 -6 -75q0 -20 1.5 -38t2.5 -26l2 -8h-445q-8 25 -8 72zM53 1112l207 301h445l112 -301h-289l-65 172l-121 -172h-289z" />
<glyph unicode="&#xef;" horiz-adv-x="606" d="M51 72q0 41 8 88l119 737q6 43 6 76q0 19 -1.5 37t-2.5 26l-2 8h445q6 -26 6 -73q0 -51 -6 -86l-119 -738q-6 -43 -6 -75q0 -20 1.5 -38t2.5 -26l2 -8h-445q-8 25 -8 72zM90 1233q0 80 57 138.5t136 58.5q62 0 101.5 -37.5t39.5 -98.5q0 -82 -56 -139t-137 -57 q-63 0 -102 36.5t-39 98.5zM494 1233q0 80 56.5 138.5t135.5 58.5q62 0 101.5 -37.5t39.5 -98.5q0 -82 -56 -139t-136 -57q-63 0 -102 36.5t-39 98.5z" />
<glyph unicode="&#xf0;" horiz-adv-x="1230" d="M59 414q0 118 43.5 228t118.5 192.5t182 132t228 49.5q60 0 119 -19q-42 66 -121 138l-230 -109l-65 172l151 72q-99 74 -147 100l346 166q68 -39 145 -102l248 118l66 -172l-170 -80q264 -261 264 -610q0 -215 -76.5 -374.5t-230.5 -250t-371 -90.5q-104 0 -194 27.5 t-158.5 80.5t-108 138t-39.5 193zM512 479q0 -57 26 -92t80 -35q52 0 90.5 35t55 82.5t16.5 97.5q0 55 -26 91t-80 36q-52 0 -90.5 -35t-55 -82.5t-16.5 -97.5z" />
<glyph unicode="&#xf1;" horiz-adv-x="1255" d="M35 0l143 897q6 47 6 84l-4 63h441q8 -21 8 -57q0 -35 -6 -69q125 147 301 147q159 0 238 -76t79 -233q0 -72 -12 -142l-76 -467q-6 -43 -6 -75q0 -20 1.5 -38t3.5 -26l1 -8h-442q-9 25 -9 72q0 36 9 88l55 352q8 58 8 84q0 92 -82 92q-29 0 -51 -11.5t-34.5 -26.5 t-22 -42t-13 -46t-8.5 -50l-82 -512h-446zM362 1135q18 110 110.5 196t203.5 86q50 0 91 -14t63.5 -31t49.5 -31t52 -14q62 0 104 86l178 -20q-19 -112 -110.5 -198.5t-202.5 -86.5q-50 0 -91 14.5t-63.5 31.5t-49.5 31.5t-52 14.5q-67 0 -104 -88z" />
<glyph unicode="&#xf2;" horiz-adv-x="1230" d="M59 416q0 195 88.5 344t242 227t347.5 78q85 0 159.5 -17t138 -52t109.5 -86.5t71.5 -124t25.5 -160.5q0 -196 -88 -344.5t-241 -227t-347 -78.5q-106 0 -197 27.5t-160.5 80.5t-109 138.5t-39.5 194.5zM459 1413h354l92 -301h-309zM512 481q0 -59 28 -95t85 -36 q54 0 94 36t57 85.5t17 101.5q0 59 -28.5 95.5t-84.5 36.5q-55 0 -94.5 -36.5t-56.5 -85.5t-17 -102z" />
<glyph unicode="&#xf3;" horiz-adv-x="1230" d="M59 416q0 195 88.5 344t242 227t347.5 78q85 0 159.5 -17t138 -52t109.5 -86.5t71.5 -124t25.5 -160.5q0 -196 -88 -344.5t-241 -227t-347 -78.5q-106 0 -197 27.5t-160.5 80.5t-109 138.5t-39.5 194.5zM512 481q0 -59 28 -95t85 -36q54 0 94 36t57 85.5t17 101.5 q0 59 -28.5 95.5t-84.5 36.5q-55 0 -94.5 -36.5t-56.5 -85.5t-17 -102zM584 1112l188 301h358l-237 -301h-309z" />
<glyph unicode="&#xf4;" horiz-adv-x="1230" d="M59 416q0 195 88.5 344t242 227t347.5 78q85 0 159.5 -17t138 -52t109.5 -86.5t71.5 -124t25.5 -160.5q0 -196 -88 -344.5t-241 -227t-347 -78.5q-106 0 -197 27.5t-160.5 80.5t-109 138.5t-39.5 194.5zM362 1112l207 301h445l112 -301h-288l-66 172l-119 -172h-291z M512 481q0 -59 28 -95t85 -36q54 0 94 36t57 85.5t17 101.5q0 59 -28.5 95.5t-84.5 36.5q-55 0 -94.5 -36.5t-56.5 -85.5t-17 -102z" />
<glyph unicode="&#xf5;" horiz-adv-x="1230" d="M59 416q0 195 88.5 344t242 227t347.5 78q85 0 159.5 -17t138 -52t109.5 -86.5t71.5 -124t25.5 -160.5q0 -196 -88 -344.5t-241 -227t-347 -78.5q-106 0 -197 27.5t-160.5 80.5t-109 138.5t-39.5 194.5zM344 1133q18 112 109 198t202 86q50 0 91 -14t63.5 -31t49.5 -31 t52 -14q65 0 107 86l176 -20q-18 -112 -110 -198.5t-203 -86.5q-50 0 -91 14.5t-63.5 31.5t-49 31.5t-50.5 14.5q-66 0 -107 -88zM512 481q0 -59 28 -95t85 -36q54 0 94 36t57 85.5t17 101.5q0 59 -28.5 95.5t-84.5 36.5q-55 0 -94.5 -36.5t-56.5 -85.5t-17 -102z" />
<glyph unicode="&#xf6;" horiz-adv-x="1230" d="M59 416q0 195 88.5 344t242 227t347.5 78q85 0 159.5 -17t138 -52t109.5 -86.5t71.5 -124t25.5 -160.5q0 -196 -88 -344.5t-241 -227t-347 -78.5q-106 0 -197 27.5t-160.5 80.5t-109 138.5t-39.5 194.5zM401 1233q0 80 56 138.5t137 58.5q61 0 100 -37.5t39 -98.5 q0 -82 -55.5 -139t-136.5 -57q-62 0 -101 36.5t-39 98.5zM512 481q0 -59 28 -95t85 -36q54 0 94 36t57 85.5t17 101.5q0 59 -28.5 95.5t-84.5 36.5q-55 0 -94.5 -36.5t-56.5 -85.5t-17 -102zM803 1233q0 80 56.5 138.5t135.5 58.5q62 0 102 -37.5t40 -98.5q0 -82 -56 -139 t-137 -57q-63 0 -102 36.5t-39 98.5z" />
<glyph unicode="&#xf7;" horiz-adv-x="1505" d="M123 543v327h1177v-327h-1177zM489 254q0 91 65.5 156t156.5 65t156 -65t65 -156t-65 -156t-156 -65t-156.5 65t-65.5 156zM489 1157q0 91 65.5 156t156.5 65t156 -65t65 -156t-65 -156t-156 -65t-156.5 65t-65.5 156z" />
<glyph unicode="&#xf8;" horiz-adv-x="1230" d="M8 109l103 90q-52 98 -52 217q0 195 88.5 344t242 227t347.5 78q175 0 301 -70l117 101l135 -160l-102 -88q53 -97 53 -223q0 -196 -88 -344.5t-241 -227t-347 -78.5q-182 0 -307 72l-115 -98zM494 496l249 223q-20 10 -55 10q-63 0 -107.5 -36.5t-64 -87t-22.5 -109.5z M573 334q21 -8 52 -8q48 0 85.5 20t59.5 54.5t34 72t17 80.5z" />
<glyph unicode="&#xf9;" horiz-adv-x="1236" d="M84 270q0 72 12 140l76 487q6 47 6 84l-4 63h444q7 -22 7 -67q0 -37 -9 -92l-49 -301q-16 -102 -16 -142q0 -86 74 -86q91 0 112 136l88 552h447l-144 -897q-6 -43 -6 -75q0 -20 1.5 -38t2.5 -26l2 -8h-432q-10 21 -10 68q0 12 2 22q-60 -53 -136.5 -84t-154.5 -31 q-149 0 -231 76t-82 219zM465 1413h358l92 -301h-309z" />
<glyph unicode="&#xfa;" horiz-adv-x="1236" d="M84 270q0 72 12 140l76 487q6 47 6 84l-4 63h444q7 -22 7 -67q0 -37 -9 -92l-49 -301q-16 -102 -16 -142q0 -86 74 -86q91 0 112 136l88 552h447l-144 -897q-6 -43 -6 -75q0 -20 1.5 -38t2.5 -26l2 -8h-432q-10 21 -10 68q0 12 2 22q-60 -53 -136.5 -84t-154.5 -31 q-149 0 -231 76t-82 219zM565 1112l187 301h358l-236 -301h-309z" />
<glyph unicode="&#xfb;" horiz-adv-x="1236" d="M84 270q0 72 12 140l76 487q6 47 6 84l-4 63h444q7 -22 7 -67q0 -37 -9 -92l-49 -301q-16 -102 -16 -142q0 -86 74 -86q91 0 112 136l88 552h447l-144 -897q-6 -43 -6 -75q0 -20 1.5 -38t2.5 -26l2 -8h-432q-10 21 -10 68q0 12 2 22q-60 -53 -136.5 -84t-154.5 -31 q-149 0 -231 76t-82 219zM362 1112l207 301h445l112 -301h-288l-66 172l-119 -172h-291z" />
<glyph unicode="&#xfc;" horiz-adv-x="1236" d="M84 270q0 72 12 140l76 487q6 47 6 84l-4 63h444q7 -22 7 -67q0 -37 -9 -92l-49 -301q-16 -102 -16 -142q0 -86 74 -86q91 0 112 136l88 552h447l-144 -897q-6 -43 -6 -75q0 -20 1.5 -38t2.5 -26l2 -8h-432q-10 21 -10 68q0 12 2 22q-60 -53 -136.5 -84t-154.5 -31 q-149 0 -231 76t-82 219zM401 1233q0 80 56 138.5t137 58.5q61 0 100 -37.5t39 -98.5q0 -82 -55.5 -139t-136.5 -57q-62 0 -101 36.5t-39 98.5zM803 1233q0 80 56.5 138.5t135.5 58.5q62 0 102 -37.5t40 -98.5q0 -82 -56 -139t-137 -57q-63 0 -102 36.5t-39 98.5z" />
<glyph unicode="&#xfd;" horiz-adv-x="1210" d="M-35 -317l141 331q62 -30 136 -30q39 0 62 12t34 45l-236 1003h467l76 -536l246 536h455l-582 -1075q-43 -80 -79 -133t-89.5 -107t-121.5 -81t-152 -27q-90 0 -190.5 15.5t-166.5 46.5zM575 1112l187 301h358l-237 -301h-308z" />
<glyph unicode="&#xfe;" horiz-adv-x="1314" d="M0 -287q0 41 8 88l234 1465q6 46 6 84l-4 63h444q6 -22 6 -67q0 -44 -8 -93l-51 -297q54 54 136.5 81.5t166.5 27.5q186 0 286.5 -119.5t100.5 -308.5q0 -99 -23.5 -194.5t-70.5 -180t-113 -148.5t-157 -101.5t-195 -37.5q-197 0 -268 121l-45 -307q-7 -51 -7 -76 q0 -20 2 -38t4 -25l1 -8h-445q-8 24 -8 71zM553 489q0 -63 34.5 -101t96.5 -38q82 0 134 65.5t52 149.5q0 63 -35 101.5t-96 38.5q-83 0 -134.5 -65.5t-51.5 -150.5z" />
<glyph unicode="&#xff;" horiz-adv-x="1210" d="M-35 -317l141 331q62 -30 136 -30q39 0 62 12t34 45l-236 1003h467l76 -536l246 536h455l-582 -1064q-30 -55 -52 -91t-54.5 -82t-65 -75.5t-73.5 -57t-90.5 -40.5t-106.5 -13q-90 0 -190.5 15.5t-166.5 46.5zM395 1233q0 80 57 138.5t136 58.5q62 0 101.5 -37.5 t39.5 -98.5q0 -82 -56 -139t-136 -57q-63 0 -102.5 36.5t-39.5 98.5zM799 1233q0 81 55.5 139t136.5 58q62 0 102 -37.5t40 -98.5q0 -82 -56.5 -139t-138.5 -57q-61 0 -100 36.5t-39 98.5z" />
<glyph unicode="&#x152;" horiz-adv-x="1955" d="M96 561q0 252 110 451.5t308 311.5t449 112q45 0 93.5 -6t74.5 -12l26 -5h885l-57 -366h-472l-24 -150h442l-57 -367h-442l-25 -159h491l-59 -371h-897q-78 -25 -211 -25q-138 0 -253.5 38.5t-200.5 111t-133 184.5t-48 252zM555 643q0 -115 64.5 -185.5t177.5 -70.5 q99 0 170 35l94 590q-52 30 -160 30q-103 0 -184 -58.5t-121.5 -148.5t-40.5 -192z" />
<glyph unicode="&#x153;" horiz-adv-x="1851" d="M59 416q0 195 88.5 344t242 227t347.5 78q208 0 342 -98q157 96 353 96q86 0 160.5 -19t137 -58.5t98.5 -109t36 -161.5q0 -338 -402 -338q-69 0 -125 9.5t-143 33.5q9 -75 63.5 -110.5t137.5 -35.5q143 0 270 74l129 -219q-73 -54 -147 -88.5t-145.5 -48t-119 -17.5 t-112.5 -4q-204 0 -334 95q-160 -91 -371 -91q-106 0 -197 27.5t-160.5 80.5t-109 138.5t-39.5 194.5zM512 481q0 -59 28 -95t85 -36q54 0 94 36t57 85.5t17 101.5q0 59 -28.5 95.5t-84.5 36.5q-55 0 -94.5 -36.5t-56.5 -85.5t-17 -102zM1223 631q80 -13 131 -13 q81 0 124.5 25.5t43.5 89.5q0 40 -30 62t-77 22q-59 0 -119.5 -57.5t-72.5 -128.5z" />
<glyph unicode="&#x178;" d="M139 1413h498l125 -471l274 471h498l-610 -860l-86 -553h-449l88 553zM498 1585q0 82 56.5 139.5t137.5 57.5q61 0 100 -36.5t39 -98.5q0 -81 -55.5 -139t-136.5 -58q-62 0 -101.5 37t-39.5 98zM907 1585q0 82 56 139.5t137 57.5q62 0 100.5 -36.5t38.5 -98.5 q0 -81 -55.5 -139t-136.5 -58q-62 0 -101 37t-39 98z" />
<glyph unicode="&#x2c6;" horiz-adv-x="993" d="M246 1116l207 297h444l113 -297h-291l-66 170l-118 -170h-289z" />
<glyph unicode="&#x2dc;" horiz-adv-x="993" d="M225 1137q18 110 110 196t202 86q50 0 91.5 -14.5t64 -31.5t49.5 -31.5t51 -14.5q64 0 106 86l176 -20q-18 -110 -109.5 -196.5t-201.5 -86.5q-50 0 -91 14.5t-63.5 31.5t-49.5 31.5t-52 14.5q-35 0 -62 -25t-43 -61z" />
<glyph unicode="&#x2000;" horiz-adv-x="937" />
<glyph unicode="&#x2001;" horiz-adv-x="1874" />
<glyph unicode="&#x2002;" horiz-adv-x="937" />
<glyph unicode="&#x2003;" horiz-adv-x="1874" />
<glyph unicode="&#x2004;" horiz-adv-x="624" />
<glyph unicode="&#x2005;" horiz-adv-x="468" />
<glyph unicode="&#x2006;" horiz-adv-x="312" />
<glyph unicode="&#x2007;" horiz-adv-x="312" />
<glyph unicode="&#x2008;" horiz-adv-x="234" />
<glyph unicode="&#x2009;" horiz-adv-x="374" />
<glyph unicode="&#x200a;" horiz-adv-x="104" />
<glyph unicode="&#x2010;" horiz-adv-x="763" d="M84 362l55 349h623l-55 -349h-623z" />
<glyph unicode="&#x2011;" horiz-adv-x="763" d="M84 362l55 349h623l-55 -349h-623z" />
<glyph unicode="&#x2012;" horiz-adv-x="763" d="M84 362l55 349h623l-55 -349h-623z" />
<glyph unicode="&#x2013;" horiz-adv-x="993" d="M16 369l54 338h987l-56 -338h-985z" />
<glyph unicode="&#x2014;" horiz-adv-x="1986" d="M66 369l53 338h1872l-56 -338h-1869z" />
<glyph unicode="&#x2018;" horiz-adv-x="784" d="M197 829l319 584h367l-271 -584h-415z" />
<glyph unicode="&#x2019;" horiz-adv-x="784" d="M166 829l270 584h418l-319 -584h-369z" />
<glyph unicode="&#x201a;" horiz-adv-x="784" d="M-4 -246l270 584h418l-319 -584h-369z" />
<glyph unicode="&#x201c;" horiz-adv-x="1290" d="M205 829l321 584h348l-272 -584h-397zM707 829l319 584h348l-270 -584h-397z" />
<glyph unicode="&#x201d;" horiz-adv-x="1290" d="M176 829l270 584h398l-320 -584h-348zM678 829l270 584h398l-320 -584h-348z" />
<glyph unicode="&#x201e;" horiz-adv-x="1290" d="M6 -246l270 584h398l-320 -584h-348zM508 -246l270 584h398l-320 -584h-348z" />
<glyph unicode="&#x2022;" horiz-adv-x="1361" d="M266 748q0 154 109.5 263t263.5 109t264.5 -109.5t110.5 -262.5q0 -154 -110.5 -264.5t-264.5 -110.5t-263.5 110.5t-109.5 264.5z" />
<glyph unicode="&#x2026;" horiz-adv-x="1986" d="M88 156q0 122 80 194t203 72q92 0 151.5 -44.5t59.5 -133.5q0 -122 -80 -194.5t-203 -72.5q-92 0 -151.5 45t-59.5 134zM727 156q0 122 80 194t203 72q92 0 151.5 -44.5t59.5 -133.5q0 -122 -80 -194.5t-203 -72.5q-92 0 -151.5 45t-59.5 134zM1366 156q0 122 80 194 t203 72q92 0 151.5 -44.5t59.5 -133.5q0 -122 -80 -194.5t-203 -72.5q-92 0 -151.5 45t-59.5 134z" />
<glyph unicode="&#x202f;" horiz-adv-x="374" />
<glyph unicode="&#x2039;" horiz-adv-x="823" d="M176 522l414 482l186 -150l-284 -332l178 -332l-234 -149z" />
<glyph unicode="&#x203a;" horiz-adv-x="823" d="M125 190l283 332l-179 332l234 150l260 -482l-414 -481z" />
<glyph unicode="&#x205f;" horiz-adv-x="468" />
<glyph unicode="&#x20ac;" d="M152 424l38 250h86q3 35 13 82h-84l39 250h129q187 428 649 428q100 0 211.5 -26t177.5 -77l-162 -332q-112 88 -233 88q-149 0 -197 -81h264l-39 -250h-329q-10 -47 -13 -82h328l-39 -250h-264q2 -24 20 -41t45 -25t50.5 -11t46.5 -3q145 0 291 100l57 -342 q-106 -69 -209.5 -97t-236.5 -28q-467 0 -521 447h-118z" />
<glyph unicode="&#x2122;" horiz-adv-x="1894" d="M51 1233v180h649v-180h-215v-680h-219v680h-215zM741 553l52 860h297l143 -543h6l143 543h297l52 -860h-226l-20 563h-6l-148 -563h-190l-148 563h-6l-20 -563h-226z" />
<glyph unicode="&#xe000;" horiz-adv-x="1044" d="M0 0v1044h1044v-1044h-1044z" />
</font>
</defs>
</svg>
